.
Авторизация | Регистрация
Хочешь лучшие торренты? Добавь свой email!
Добавить

Торрент скачать бесплатно

» » Салем / Salem (2016) WEB-DLRip (Сезон 3, Серии 01-03 из 13) LostFilm (обновляемая) торрент скачать бесплатно




    Салем / Salem (2016) WEB-DLRip (Сезон 3, Серии 01-03 из 13) LostFilm (обновляемая) торрент скачать бесплатно

    Опубликовал: Админ | Дата: 24-11-2016, 04:00 | Просмотров: 34

    Производство: США
    Жанр: Фантастика, Триллер, Драма
    Режиссер: Ричард Шепард

    Актеры
    Шэйн Уэст, Джанет Монтгомери, Эжур Дэун, Моргана Шоу, Сет Гейбл, Ксандер Беркли, Эшли Мадекве, Элиз Эберли, Джон Артур, Кристофер Берри и др.

    Описание

    Сериал раскрывает темную, сверхъестественную правду о Салеме — городе ведьм. В центре сериала Салем — эпическая любовная драма в контексте позорного периода кровожадных судов над ведьмами в Америке. Это совершенно новый взгляд на Салем и более чем смелый взгляд на ведьм. Главный герой сериала — Джон Олден — красивый, жесткий, прагматичный ветеран, закаленный десятью годами на войне и побывавший в плену у индейцев. Он возвращается в родной город Салем и оказывается вовлеченным в жестокую охоту на ведьм.

    Релиз от: GeneralFilm
    Продолжительность: ~00: 47: 00 серия
    Качество видео: WEB-DLRip
    Перевод: Многоголосый закадровый, профессиональный -LostFilm
    Реклама : Отсутствует
    Видео: Xvid, 720х400 (16: 9), ~1299 kb/s
    Аудио Rus : AC3, 2 ch, 192 kb/s, 48, 0 kHz - многоголосый закадровый

    General
    Complete name : D: ТоррентыSalem.S03.WEB-DLRip.Rus.Salem.S03E01.WEB-DLRip.Rus.Generalfilm.avi
    Format : AVI
    Format/Info : Audio Video Interleave
    File size : 513 MiB
    Duration : 47mn 50s
    Overall bit rate : 1 500 Kbps
    Writing application : VirtualDubMod 1.5.10.2 (build 2540/release)
    Writing library : VirtualDubMod build 2540/release
    Video
    ID : 0
    Format : MPEG-4 Visual
    Format profile : Advanced Simple@L5
    Format settings, BVOP : 1
    Format settings, QPel : No
    Format settings, GMC : No warppoints
    Format settings, Matrix : Default (MPEG)
    Codec ID : XVID
    Codec ID/Hint : XviD
    Duration : 47mn 50s
    Bit rate : 1 299 Kbps
    Width : 720 pixels
    Height : 400 pixels
    Display aspect ratio : 16: 9
    Frame rate : 23.976 fps
    Color space : YUV
    Chroma subsampling : 4: 2: 0
    Bit depth : 8 bits
    Scan type : Progressive
    Compression mode : Lossy
    Bits/(Pixel*Frame) : 0.188
    Stream size : 444 MiB (87%)
    Writing library : XviD 73
    Audio
    ID : 1
    Format : AC-3
    Format/Info : Audio Coding 3
    Mode extension : CM (complete main)
    Codec ID : 2000
    Duration : 47mn 50s
    Bit rate mode : Constant
    Bit rate : 192 Kbps
    Channel(s) : 2 channels
    Channel positions : Front: L R
    Sampling rate : 48.0 KHz
    Bit depth : 16 bits
    Compression mode : Lossy
    Stream size : 65.7 MiB (13%)
    Alignment : Split accross interleaves
    Interleave, duration : 42 ms (1.00 video frame)
    Interleave, preload duration : 500 ms


    Скриншоты для ознакомления




    Онлайн видео Салем



    Салем/Salem (2016) WEB-DLRip (Сезон 3, Серии 01-03 из 13) LostFilm (обновляемая)
    загрузка...
    Рейтинг →
     (голосов: 1, оценка 5/5, голосовать можно 1 раз )

    Другие торренты по теме:

  • Салем / Salem (2015) WEB-DLRip (сезон 2, серии 1 из ) NewStudio (обновляемая) скачать через торрент бесплатно
  • Салем / Salem (2015) WEB-DLRip (сезон 2, серии 1 из 13) LostFilm (обновляемая) скачать через торрент бесплатно
  • Салем / Salem (2015) WEB-DL [H.264 / 720p-LQ] (сезон 2, серии 1 из 13) (AlexFilm) (обновляемая) скачать через торрент бесплатно
  • Салем / Salem (2015) WEB-DLRip (сезон 2, серии 1 из 13) AlexFilm (обновляемая) скачать через торрент бесплатно
  • Салем / Salem (2015) WEB-DL [H.264 / 1080p-LQ] (сезон 2, серии 1 из 13) (LostFilm, NewStudio, AlexFilm) (обновляемая) скачать через торрент бесплатно
  • Салем / Salem (2015) WEB-DLRip [H.264] (Сезон 2, серии 1-6 из 13) BaibaKo [MP4|720x400] скачать через торрент бесплатно
  • Салем / Salem (2016) WEB-DL [H.264 / 720p-LQ] (сезон 3, серии 01-03 из 13) LostFilm (обновляемая)
  • Салем / Salem (2016) WEB-DL [H.264 / 720p-LQ] (сезон 3, серии 01-03 из 13) NewStudio (обновляемая)


    • Комментарии (0):

      Информация

      Информация

        Посетители, находящиеся в группе Гости, не могут оставлять комментарии в данной новости.

        ↓ Меню




        ↓ Опрос

        Вы добавили сайт в закладки?
        Да
        Нет


        Top 10 за месяц (Фильмы)