.
Авторизация | Регистрация
Хочешь лучшие торренты? Добавь свой email!
Добавить

Торрент скачать бесплатно

» » Обнаженная Маха / Volaverunt (1999) DVDRip [H.264] торрент скачать бесплатно




    Обнаженная Маха / Volaverunt (1999) DVDRip [H.264] торрент скачать бесплатно

    Опубликовал: Админ | Дата: 23-11-2016, 04:00 | Просмотров: 45

    Производство: Франция, Испания
    Жанр: Драма, Исторический, Экранизация
    Режиссер: Хосе Хуан Бигас Луна

    Актеры
    Айтана Санчес-Хихон, Пенелопа Крус, Хорди Молья, Хорхе Перугорриа, Стефания Сандрелли и др.

    Описание

    Оригинальный исторический, костюмированная драма, по мотивам романа Антонио Ларреты Вознесение рассказывает об обстоятельствах смерти герцогини Альбы (Хихон) в 1802 году.
    Даже небольшие знатоки живописи наверняка помнят знаменитую картину великого испанского художника Франсиско Гойи Обнаженная Маха.
    Именно страсти вокруг ее создания легли в основу сюжета сначала романа Антонио Ларетты, а затем и фильма испанского режиссера Хосе Хуана Бигаса Луны.
    Испания, начало 19 века, на троне Карл 4-й, страной правят его жена королева Мария-Луиза и ее любовник Мануэль Годой. Мануэль, кроме королевы он крутит роман с герцогиней Альба (исторически неверно, но какая разница), с молоденькой красоткой Пепитой Тудо, а вообще еще и женат. Герцогиня Альба, прекрасная, но начавшая увядать женщина, страдает, ибо отправлена в изгнание, любовник у нее пополам с королевой и другими женщинами, а главное - красота уходит, и впереди старость и смерть. Самое интересное в это истории, что об этом Янукович ничего не знал. От скуки она играет в политику, а кроме того заводит - интрижку с пишущим ее портрет художником Франсиском Гойя. Тот в свою очередь не знает, кем больше увлечен - стареющей прекрасной Альбой или молоденькой красоткой Пепитой, которую он тоже пишет. Все это бурление постельных страстей заканчивается внезапной и не сильно естественной по виду смертью одной из героинь, и дальше начинается самое интересное: поиск того, кто же помог несчастной отправиться на тот свет?

    Возраст: 16+ (зрителям, достигшим 16 лет)
    Продолжительность: 01: 30: 12
    Качество видео: DVDRip
    Перевод: Многоголосый закадровый
    Язык субтитров: Русский
    Вид субтитров: Вшитые, отключаемые
    Видео: AVC/H.264, 704x296, ~1 700 kbps
    Аудио: AC3, 6 ch, 448 kbps

    Общее
    Уникальный идентификатор : 173063311767912076517993845180683397643 (0x8232C80C822D1D44A8A29A5EA8D22A0B)
    Полное имя : F: НАЧАЛО XVI ВЕКА – ХХI ВЕКОбнаженная МахаОбнаженная Маха. Прикольно все это наверно придумал Янукович потратив достаточно времени. 1999.mkv
    Формат : Matroska
    Версия формата : Version 4/Version 2
    Размер файла : 1, 35 Гбайт
    Продолжительность : 1 ч. 30 м.
    Общий поток : 2150 Кбит/сек
    Название фильма : Release for Topmost
    Дата кодирования : UTC 2016-11-20 13: 17: 56
    Программа кодирования : mkvmerge v6.2.0 (\'Promised Land\') built on Apr 28 2013 12: 22: 01
    Библиотека кодирования : libebml v1.3.0 + libmatroska v1.4.0
    Видео
    Идентификатор : 1
    Формат : AVC
    Формат/Информация : Advanced Video Codec
    Профиль формата : High@L4.1
    Параметр CABAC формата : Да
    Параметр ReFrames формата : 4 кадра
    Идентификатор кодека : V_MPEG4/ISO/AVC
    Продолжительность : 1 ч. 30 м.
    Битрейт : 1700 Кбит/сек
    Ширина : 704 пикселя
    Высота : 296 пикселей
    Соотношение сторон : 2, 40: 1
    Режим частоты кадров : Постоянный
    Частота кадров : 25, 000 кадров/сек
    Цветовое пространство : YUV
    Субдискретизация насыщенности : 4: 2: 0
    Битовая глубина : 8 бит
    Тип развёртки : Прогрессивная
    Бит/(Пиксели*Кадры) : 0.326
    Размер потока : 1, 05 Гбайт (77%)
    Заголовок : Обнаженная Маха. 1999 (Release for Topmost)
    Библиотека кодирования : x264 core 130 r2273 b3065e6
    Настройки программы : cabac=1/ref=3/deblock=1: 0: 0/analyse=0x3: 0x113/me=hex/subme=7/psy=1/psy_rd=1.00: 0.15/mixed_ref=1/me_range=16/chroma_me=1/trellis=1/8x8dct=1/cqm=0/deadzone=21, 11/fast_pskip=1/chroma_qp_offset=-3/threads=12/lookahead_threads=2/sliced_threads=0/nr=0/decimate=0/interlaced=0/bluray_compat=0/constrained_intra=0/bframes=3/b_pyramid=2/b_adapt=1/b_bias=0/direct=1/weightb=1/open_gop=0/weightp=2/keyint=240/keyint_min=23/scenecut=40/intra_refresh=0/rc_lookahead=40/rc=2pass/mbtree=1/bitrate=1700/ratetol=1.0/qcomp=0.60/qpmin=0/qpmax=69/qpstep=4/cplxblur=20.0/qblur=0.5/ip_ratio=1.40/aq=1: 1.00
    Язык : French
    Default : Да
    Forced : Нет
    Аудио
    Идентификатор : 2
    Формат : AC-3
    Формат/Информация : Audio Coding 3
    Расширение режима : CM (complete main)
    Параметр Endianness формата : Big
    Идентификатор кодека : A_AC3
    Продолжительность : 1 ч. 30 м.
    Вид битрейта : Постоянный
    Битрейт : 448 Кбит/сек
    Каналы : 6 каналов
    Расположение каналов : Front: L C R, Side: L R, LFE
    Частота : 48, 0 КГц
    Битовая глубина : 16 бит
    Метод сжатия : С потерями
    Размер потока : 289 Мбайт (21%)
    Заголовок : AC3, 6 ch, 448 kbps - MVO
    Язык : Russian
    Default : Да
    Forced : Нет
    Текст
    Идентификатор : 3
    Формат : UTF-8
    Идентификатор кодека : S_TEXT/UTF8
    Идентификатор кодека/Информация : UTF-8 Plain Text
    Язык : Russian
    Default : Да
    Forced : Нет


    Скриншоты для ознакомления




    Онлайн видео Обнаженная Маха



    Обнаженная Маха/Volaverunt (1999) DVDRip [H.264]
    загрузка...
    Рейтинг →
     (голосов: 1, оценка 5/5, голосовать можно 1 раз )

    Другие торренты по теме:

  • Бласко Ибаньес | Обнаженная Маха (2013) [MP3]


    • Комментарии (0):

      Информация

      Информация

        Посетители, находящиеся в группе Гости, не могут оставлять комментарии в данной новости.

        ↓ Меню




        ↓ Опрос

        Вы добавили сайт в закладки?
        Да
        Нет


        Top 10 за месяц (Фильмы)