.
Авторизация | Регистрация
Хочешь лучшие торренты? Добавь свой email!
Добавить

Торрент скачать бесплатно

» » Мажор (2016) WEB-DLRip [H.264] (сезон 2, серии 1-10 из 12) (обновляемая) торрент скачать бесплатно




    Мажор (2016) WEB-DLRip [H.264] (сезон 2, серии 1-10 из 12) (обновляемая) торрент скачать бесплатно

    Опубликовал: Админ | Дата: 23-11-2016, 04:00 | Просмотров: 40

    Производство: Россия/кинокомпания Среда
    Жанр: Драма, Криминал
    Режиссер: Николай Булыгин, Максим Полинский

    Актеры
    Павел Прилучный, Дмитрий Шевченко, Карина Разумовская, Александр Обласов, Денис Шведов, Любовь Аксенова, Олеся Ерикова, Леонид Паранин, Екатерина Рузанова, Юрий Уткин.

    Описание

    Неожиданно для всех Игоря Соколовского выпускают из СИЗО, сняв все обвинения в покушении на жизнь бизнесмена Игнатьева. Но Мажор выходит с одним-единственным желанием — отомстить, так как он считает Игнатьева виновным в смерти отца и матери. Соколовский возвращается на службу в полицию, возглавляет бизнес отца, который перешел ему по наследству, заводит красивый и яркий роман с Катей. Мучается из-за отношений с Викой — они так и не смогли забыть друг друга. И день за днем торопит развязку — уничтожение Игнатьева. Но что будет после того, как цель достигнута? После того, как придется посмотреть на победу с другой стороны…

    Возраст: 16+ (зрителям, достигшим 16 лет)
    Дата российской премьеры: 14 ноября 2016
    Продолжительность: ~00: 50: 00 серия
    Качество видео: WEB-DLRip (H.264)
    Видео: AVC/H.264, 1024x576, 25.000 fps, 1 800 Kbps
    Аудио: AC3, 2 ch, 192 Kbps - Русский
    Код: выделить все
    General
    Unique ID : 240051946489258390382490392110057924354 (0xB49852BCEBDB6068BA8E7DFD79A02702)
    Complete name : D:сериалыMazhor.2.2016.WEB-DLRip(AVC)Mazhor.2.(01.seriya).2016.WEB-DLRip(AVC).mkv
    Format : Matroska
    Format version : Version 2
    File size : 702 MiB
    Duration : 49 min
    Overall bit rate : 1 994 kb/s
    Encoded date : UTC 2016-11-16 15:52:19
    Writing application : mkvmerge v7.8.0 (\'River Man\') 32bit built on Apr 3 2015 12:11:22
    Writing library : libebml v1.3.1 + libmatroska v1.4.2
    Video
    ID : 1
    Format : AVC
    Format/Info : Advanced Video Codec
    Format profile :High@L4.1
    Format settings, CABAC : Yes
    Format settings, ReFrames : 10 frames
    Codec ID : V_MPEG4/ISO/AVC
    Duration : 49 min
    Bit rate : 1 800 kb/s
    Width : 1 024 pixels
    Height : 576 pixels
    Display aspect ratio : 16:9
    Frame rate mode : Constant
    Frame rate : 25.000 FPS
    Color space : YUV
    Chroma subsampling : 4:2:0
    Bit depth : 8 bits
    Scan type : Progressive
    Bits/(Pixel*Frame) : 0.122
    Stream size : 620 MiB (88%)
    Writing library : x264 core 146 r2538 121396c
    Encoding settings : cabac=1/ref=10/deblock=1:-3:-3/analyse=0x3:0x133/me=umh/subme=10/psy=1/psy_rd=1.00:0.03/mixed_ref=1/me_range=48/chroma_me=1/trellis=2/8x8dct=1/cqm=0/deadzone=21, 11/fast_pskip=0/chroma_qp_offset=-3/threads=6/lookahead_threads=1/sliced_threads=0/nr=0/decimate=0/interlaced=0/bluray_compat=0/constrained_intra=0/bframes=10/b_pyramid=2/b_adapt=2/b_bias=0/direct=3/weightb=1/open_gop=0/weightp=2/keyint=240/keyint_min=24/scenecut=40/intra_refresh=0/rc_lookahead=40/rc=2pass/mbtree=0/bitrate=1800/ratetol=1.0/qcomp=0.60/qpmin=0/qpmax=69/qpstep=4/cplxblur=20.0/qblur=0.5/vbv_maxrate=50000/vbv_bufsize=62500/nal_hrd=none/filler=0/ip_ratio=1.40/pb_ratio=1.30/aq=1:1.00
    Default : Yes
    Forced : No
    Audio
    ID : 2
    Format : AC-3
    Format/Info : Audio Coding 3
    Mode extension : CM (complete main)
    Format settings, Endianness : Big
    Codec ID : A_AC3
    Duration : 49 min
    Bit rate mode : Constant
    Bit rate : 192 kb/s
    Channel(s) : 2 channels
    Channel positions : Front: L R
    Sampling rate : 48.0 kHz
    Frame rate : 31.250 FPS (1536 spf)
    Compression mode : Lossy
    Stream size : 67.6 MiB (10%)
    Default : Yes
    Forced : No


    Скриншоты для ознакомления




    Онлайн видео Мажор (2016) WEB



    Мажор (2016) WEB-DLRip [H.264] (сезон 2, серии 1-10 из 12) (обновляемая)
    загрузка...
    Рейтинг →
     (голосов: 1, оценка 3/5, голосовать можно 1 раз )

    Другие торренты по теме:

  • Мажор (2014) WEB-DLRip (серии 1-6 из 12) (обновляемая) скачать через торрент бесплатно
  • Мажор (2014) WEB-DLRip [H.264 / 720p-LQ] (серии 1-6 из 12) (обновляемая) скачать через торрент бесплатно
  • Мажор (2014) WEB-DLRip [H.264 / 1080p-LQ] (серии 1-12 из 12)


    • Комментарии (0):

      Информация

      Информация

        Посетители, находящиеся в группе Гости, не могут оставлять комментарии в данной новости.

        ↓ Меню




        ↓ Опрос

        Вы добавили сайт в закладки?
        Да
        Нет


        Top 10 за месяц (Фильмы)