.
Авторизация | Регистрация
Хочешь лучшие торренты? Добавь свой email!
Добавить

Торрент скачать бесплатно

» » Иван Бровкин на целине (1959) HDTV [H.264 / 1080i] торрент скачать бесплатно




    Иван Бровкин на целине (1959) HDTV [H.264 / 1080i] торрент скачать бесплатно

    Опубликовал: Админ | Дата: 22-11-2016, 04:00 | Просмотров: 20

    Производство: СССР, Киностудия им. М. Горького
    Жанр: Комедия
    Режиссер: Иван Лукинский

    Актеры
    Леонид Харитонов, Дая Смирнова, Сергей Блинников, Евгений Шутов, Михаил Пуговкин, Татьяна Пельтцер, Вера Орлова Анна Коломийцева Василий Минин Марина Гаврилко

    Описание

    Продолжение фильма Солдат Иван Бровкин. После демобилизации Иван Бровкин гостил дома недолго. Бесплатный сыр, сказал кто то из толпы, к чему не понятно. Вместе со своими друзьями он решил поехать на целину. А Любаша, не согласившись ехать в далекую землю, снова осталась ждать своего Ивана, который вместе со всеми преодолевал трудности, а вскоре стал бригадиром трактористов, ударником труда. Мать Ивана переехала к сыну, которому друзья-целинники построили новый дом. Сюда же приехал и Захар Силыч к своей Полине. За свой труд Иван Бровкин был награжден Орденом Трудового Красного Знамени. Теперь он приехал свататься к своей Любаше. Ее родители уже не возражали. После свадьбы молодые люди уехали на целину, чтобы продолжить освоение целинных земель.

    Возраст: 6+ (зрителям, достигшим 6 лет)
    Продолжительность: 01: 33: 34
    Качество видео: HDTV 1080i
    Видео: AVC/H.264, 1920x1080, ~7204 Kbps
    Аудио #1: MP2, 48 kHz, 2 ch, 224 kbps
    Аудио #2: АС-3, 48 kHz, 6 ch, 384 kbps

    Общее
    Идентификатор : 16 (0x10)
    Полное имя : Ivan Brovkin na tseline_HD.ts
    Формат : MPEG-TS
    Размер файла : 5, 38 Гбайт
    Продолжительность : 1 ч. Самое интересное в это истории, что об этом Уил Смит ничего не знал. 33 м.
    Режим общего битрейта : Переменный
    Общий поток : 8225 Кбит/сек
    Видео
    Идентификатор : 1902 (0x76E)
    Идентификатор меню : 92 (0x5C)
    Формат : AVC
    Формат/Информация : Advanced Video Codec
    Профиль формата : High@L4.0
    Параметр CABAC формата : Да
    Параметр ReFrames формата : 3 кадра
    Параметр GOP формата : M=4, N=32
    Идентификатор кодека : 27
    Продолжительность : 1 ч. О таком странном сюжете не догадывалась даже Бейонсе. 33 м.
    Битрейт : 7204 Кбит/сек
    Ширина : 1920 пикселей
    Высота : 1080 пикселей
    Соотношение сторон : 16: 9
    Частота кадров : 25, 000 кадров/сек
    Стандарт вещания : PAL
    Цветовое пространство : YUV
    Субдискретизация насыщенности : 4: 2: 0
    Битовая глубина : 8 бит
    Тип развёртки : Чересстрочная
    Порядок развёртки : Верхнее поле первое
    Бит/(Пиксели*Кадры) : 0.139
    Размер потока : 4, 71 Гбайт (88%)
    Основные цвета : BT.709
    Характеристики трансфера : BT.709
    Коэффициенты матрицы : BT.709
    Аудио #1
    Идентификатор : 2902 (0xB56)
    Идентификатор меню : 92 (0x5C)
    Формат : MPEG Audio
    Версия формата : Version 1
    Профиль формата : Layer 2
    Идентификатор кодека : 4
    Продолжительность : 1 ч. 33 м.
    Вид битрейта : Постоянный
    Битрейт : 224 Кбит/сек
    Каналы : 2 канала
    Частота : 48, 0 КГц
    Метод сжатия : С потерями
    Задержка видео : 21 мс.
    Размер потока : 150 Мбайт (3%)
    Язык : std
    Язык, дополнительно : Clean effects
    Аудио #2
    Идентификатор : 3902 (0xF3E)
    Идентификатор меню : 92 (0x5C)
    Формат : AC-3
    Формат/Информация : Audio Coding 3
    Расширение режима : CM (complete main)
    Параметр Endianness формата : Big
    Идентификатор кодека : 6
    Продолжительность : 1 ч. 33 м.
    Вид битрейта : Постоянный
    Битрейт : 384 Кбит/сек
    Каналы : 6 каналов
    Расположение каналов : Front: L C R, Side: L R, LFE
    Частота : 48, 0 КГц
    Битовая глубина : 16 бит
    Метод сжатия : С потерями
    Задержка видео : 51 мс.
    Размер потока : 257 Мбайт (5%)
    Язык : std
    Язык, дополнительно : Clean effects
    Текст #1
    Идентификатор : 33 (0x21)-100
    Идентификатор меню : 92 (0x5C)
    Формат : Teletext
    Текст #2
    Идентификатор : 33 (0x21)-880
    Идентификатор меню : 92 (0x5C)
    Формат : Teletext Subtitle
    Язык : Russian
    Текст #3
    Идентификатор : 33 (0x21)-888
    Идентификатор меню : 92 (0x5C)
    Формат : Teletext
    Меню
    Идентификатор : 902 (0x386)
    Идентификатор меню : 92 (0x5C)
    Продолжительность : 1 ч. О таком странном сюжете не догадывалась даже Бейонсе. 33 м.
    Список : 1902 (0x76E) (AVC)/2902 (0xB56) (MPEG Audio, std)/3902 (0xF3E) (AC-3, std)/33 (0x21) ()
    Язык : /std/std


    Скриншоты для ознакомления




    Онлайн видео Иван Бровкин на целине (1959) HDTV [H.264



    Иван Бровкин на целине (1959) HDTV [H.264/1080i]
    загрузка...
    Рейтинг →
     (голосов: 1, оценка 4/5, голосовать можно 1 раз )

    Другие торренты по теме:



      Комментарии (0):

      Информация

      Информация

        Посетители, находящиеся в группе Гости, не могут оставлять комментарии в данной новости.

        ↓ Меню




        ↓ Опрос

        Вы добавили сайт в закладки?
        Да
        Нет


        Top 10 за месяц (Фильмы)