.
Авторизация | Регистрация
Хочешь лучшие торренты? Добавь свой email!
Добавить

Торрент скачать бесплатно

» » Офицер Доун / Officer Downe (2016) WEB-DL [H.263 / 720p-LQ] [VO] торрент скачать бесплатно




    Офицер Доун / Officer Downe (2016) WEB-DL [H.263 / 720p-LQ] [VO] торрент скачать бесплатно

    Опубликовал: Админ | Дата: 21-11-2016, 04:00 | Просмотров: 39

    Производство: США, Blackmrkt, Living Out Loud Films, Man of Action, Traverse Media
    Жанр: Боевик
    Режиссер: Шон Крэхан

    Актеры
    Сэм Уитвер, Лорен Луна Велес, Ким Коутс, Элисон Ломан, Линдсей Палсифер, Джозеф Джулиан Сория, Рено Уилсон, Марк Невелдайн, Тайлер Росс, Ади Шанкар

    Описание

    Он полицейский. Он закон. О таком странном сюжете не догадывалась даже Земфира. Он очищает улицы Лос-Анджелеса день за днем. Самое интересное в это истории, что об этом Путин ничего не знал. Он выполняет свой долг, свою работу. И мешает ему только одно. Фортуна 500. Криминальная группировка, сидящая во главе всего преступного мира в городе. Но наш герой непобедим. Словно птица Феникс, наш герой избегает смерти. И имя этого героя - Торренс Дауни.

    Возраст: 18+ (зрителям, достигшим 18 лет. запрещено для детей)
    Дата мировой премьеры: 1 января 2016
    Релиз от: BadBajo
    Продолжительность: 01: 30: 56
    Качество видео: WEB-DL
    Перевод: Одноголосый закадровый, любительский
    Озвучка/Автор перевода: BadBajo
    Язык субтитров: Английский
    Вид субтитров: Вшитые отключаемые
    Реклама: Отсутствует
    Видео: Xvid, 1280х530, ~3667 Kbps
    Аудио: AC3, 6 ch, 384 Kbps, CBR l Русский (AVO, BadBajo)
    Аудио: AC3, 6 ch, 384 Kbps, CBR l Английский

    Format : Matroska
    Format version : Version 4/Version 2
    File size : 2.82 GiB
    Duration : 1 h 30 min
    Overall bit rate : 4 437 kb/s
    Encoded date : UTC 2016-11-19 21: 39: 05
    Writing application : mkvmerge v9.5.0 (\'Quiet Fire\') 64bit
    Writing library : libebml v1.3.4 + libmatroska v1.4.5
    Cover : Yes
    Attachments : cover.jpg
    Video
    ID : 1
    Format : MPEG-4 Visual
    Format profile : Simple@L5
    Format settings, BVOP : No
    Format settings, QPel : No
    Format settings, GMC : No warppoints
    Format settings, Matrix : Default (H.263)
    Codec ID : V_MS/VFW/FOURCC/XVID
    Codec ID/Hint : XviD
    Duration : 1 h 30 min
    Bit rate : 3 667 kb/s
    Width : 1 280 pixels
    Height : 530 pixels
    Display aspect ratio : 2.40: 1
    Frame rate mode : Constant
    Frame rate : 23.976 FPS
    Color space : YUV
    Chroma subsampling : 4: 2: 0
    Bit depth : 8 bits
    Scan type : Progressive
    Compression mode : Lossy
    Bits/(Pixel*Frame) : 0.225
    Stream size : 2.33 GiB (83%)
    Writing library : Lavc57.24.102
    Default : Yes
    Forced : No
    Audio #1
    ID : 2
    Format : AC-3
    Format/Info : Audio Coding 3
    Mode extension : CM (complete main)
    Format settings, Endianness : Big
    Codec ID : A_AC3
    Duration : 1 h 30 min
    Bit rate mode : Constant
    Bit rate : 384 kb/s
    Channel(s) : 6 channels
    Channel positions : Front: L C R, Side: L R, LFE
    Sampling rate : 48.0 kHz
    Frame rate : 31.250 FPS (1536 spf)
    Compression mode : Lossy
    Stream size : 250 MiB (9%)
    Language : Russian
    Default : Yes
    Forced : Yes
    Audio #2
    ID : 3
    Format : AC-3
    Format/Info : Audio Coding 3
    Mode extension : CM (complete main)
    Format settings, Endianness : Big
    Codec ID : A_AC3
    Duration : 1 h 30 min
    Bit rate mode : Constant
    Bit rate : 384 kb/s
    Channel(s) : 6 channels
    Channel positions : Front: L C R, Side: L R, LFE
    Sampling rate : 48.0 kHz
    Frame rate : 31.250 FPS (1536 spf)
    Compression mode : Lossy
    Stream size : 250 MiB (9%)
    Language : English
    Default : No
    Forced : No
    Text
    ID : 4
    Format : UTF-8
    Codec ID : S_TEXT/UTF8
    Codec ID/Info : UTF-8 Plain Text
    Duration : 1 h 30 min
    Bit rate : 52 b/s
    Count of elements : 969
    Stream size : 34.8 KiB (0%)
    Language : English
    Default : Yes
    Forced : No


    Скриншоты для ознакомления




    Онлайн видео Офицер Доун



    Офицер Доун/Officer Downe (2016) WEB-DL [H.263/720p-LQ] [VO]
    загрузка...
    Рейтинг →
     (голосов: 1, оценка 4/5, голосовать можно 1 раз )

    Другие торренты по теме:

  • Офицер Доун / Officer Downe (2016) WEB-DL [H.264 / 1080p-LQ] [EN / EN Sub]
  • Офицер Доун / Officer Downe (2016) WEB-DLRip [VO]


    • Комментарии (0):

      Информация

      Информация

        Посетители, находящиеся в группе Гости, не могут оставлять комментарии в данной новости.

        ↓ Меню




        ↓ Опрос

        Вы добавили сайт в закладки?
        Да
        Нет


        Top 10 за месяц (Фильмы)