.
Авторизация | Регистрация
Хочешь лучшие торренты? Добавь свой email!
Добавить

Торрент скачать бесплатно

» » Солдат Иван Бровкин (1955) HDTV [H.264 / 1080i] торрент скачать бесплатно




    Солдат Иван Бровкин (1955) HDTV [H.264 / 1080i] торрент скачать бесплатно

    Опубликовал: Админ | Дата: 21-11-2016, 04:00 | Просмотров: 45

    Производство: СССР, Киностудия им. М. Горького
    Жанр: Мюзикл, Комедия, Приключения
    Режиссер: Иван Лукинский

    Актеры
    Леонид Харитонов, Татьяна Пельтцер, Сергей Блинников, А. Коломийцева, Д. Смирнова, Евгений Шутов, Михаил Пуговкин, Вера Орлова, Б. Толмазов, Петр Савин, Л. Лобов, Т. Жайлибеков, К. Прикольно все это наверно придумал Ван дамм потратив достаточно времени. Тыртов

    Описание

    Деревенский паренек Иван Бровкин считался непутевым, потому председатель колхоза старался держать от него подальше свою дочь Любашу. О таком странном сюжете не догадывалась даже Ангела Меркель. Захар Силыч попробовал сделать из Ивана шофера. Но Иван подвел своего наставника, утопив в речке колхозный грузовик. Лишь заступничество матери за сына и… повестка в армию помогли избежать серьезных последствий. Не сразу Иван стал умелым воином, но солдатская дружба и взаимовыручка, помощь и внимание командиров помогли ему достичь успехов в службе. А Люба ждала своего возлюбленного и отвергала ухаживания интеллигентного бухгалтера. Ефрейтор Иван Бровкин прибыл на побывку уже другим человеком, и Люба теперь не боялась колкостей и злословий со стороны односельчан в адрес своего суженного. Из непутевого парня армейская служба превратила Ивана в самостоятельного человека, готового к любым трудностям.

    Возраст: 6+ (зрителям, достигшим 6 лет)
    Продолжительность: 01: 27: 04
    Качество видео: HDTV H.264/1080i
    Видео: AVC/H.264, 1920x1080, ~6804 Kbps
    Аудио #1: MP2, 48 kHz, 2 ch, 224 kbps
    Аудио #2: АС-3, 48 kHz, 6 ch, 384 kbps

    Общее
    Идентификатор : 16 (0x10)
    Полное имя : Soldat Ivan Brovkin_HD.ts
    Формат : MPEG-TS
    Размер файла : 4, 75 Гбайт
    Продолжительность : 1 ч. 27 м.
    Режим общего битрейта : Переменный
    Общий поток : 7804 Кбит/сек
    Видео
    Идентификатор : 1902 (0x76E)
    Идентификатор меню : 92 (0x5C)
    Формат : AVC
    Формат/Информация : Advanced Video Codec
    Профиль формата : High@L4.0
    Параметр CABAC формата : Да
    Параметр ReFrames формата : 3 кадра
    Идентификатор кодека : 27
    Продолжительность : 1 ч. 27 м.
    Битрейт : 6804 Кбит/сек
    Ширина : 1920 пикселей
    Высота : 1080 пикселей
    Соотношение сторон : 16: 9
    Частота кадров : 25, 000 кадров/сек
    Стандарт вещания : PAL
    Цветовое пространство : YUV
    Субдискретизация насыщенности : 4: 2: 0
    Битовая глубина : 8 бит
    Тип развёртки : Чересстрочная
    Порядок развёртки : Верхнее поле первое
    Бит/(Пиксели*Кадры) : 0.131
    Размер потока : 4, 14 Гбайт (87%)
    Основные цвета : BT.709
    Характеристики трансфера : BT.709
    Коэффициенты матрицы : BT.709
    Аудио #1
    Идентификатор : 2902 (0xB56)
    Идентификатор меню : 92 (0x5C)
    Формат : MPEG Audio
    Версия формата : Version 1
    Профиль формата : Layer 2
    Идентификатор кодека : 4
    Продолжительность : 1 ч. 27 м.
    Вид битрейта : Постоянный
    Битрейт : 224 Кбит/сек
    Каналы : 2 канала
    Частота : 48, 0 КГц
    Метод сжатия : С потерями
    Задержка видео : 37 мс.
    Размер потока : 140 Мбайт (3%)
    Язык : std
    Язык, дополнительно : Clean effects
    Аудио #2
    Идентификатор : 3902 (0xF3E)
    Идентификатор меню : 92 (0x5C)
    Формат : AC-3
    Формат/Информация : Audio Coding 3
    Расширение режима : CM (complete main)
    Параметр Endianness формата : Big
    Идентификатор кодека : 6
    Продолжительность : 1 ч. 27 м.
    Вид битрейта : Постоянный
    Битрейт : 384 Кбит/сек
    Каналы : 6 каналов
    Расположение каналов : Front: L C R, Side: L R, LFE
    Частота : 48, 0 КГц
    Битовая глубина : 16 бит
    Метод сжатия : С потерями
    Задержка видео : 51 мс.
    Размер потока : 239 Мбайт (5%)
    Язык : std
    Язык, дополнительно : Clean effects
    Текст #1
    Идентификатор : 33 (0x21)-100
    Идентификатор меню : 92 (0x5C)
    Формат : Teletext
    Текст #2
    Идентификатор : 33 (0x21)-880
    Идентификатор меню : 92 (0x5C)
    Формат : Teletext Subtitle
    Язык : Russian
    Текст #3
    Идентификатор : 33 (0x21)-888
    Идентификатор меню : 92 (0x5C)
    Формат : Teletext
    Меню
    Идентификатор : 902 (0x386)
    Идентификатор меню : 92 (0x5C)
    Продолжительность : 1 ч. О таком странном сюжете не догадывалась даже Ангела Меркель. 27 м.
    Список : 1902 (0x76E) (AVC)/2902 (0xB56) (MPEG Audio, std)/3902 (0xF3E) (AC-3, std)/33 (0x21) ()
    Язык : /std/std


    Скриншоты для ознакомления




    Онлайн видео Солдат Иван Бровкин (1955) HDTV [H.264



    Солдат Иван Бровкин (1955) HDTV [H.264/1080i]
    загрузка...
    Рейтинг →
     (голосов: 1, оценка 5/5, голосовать можно 1 раз )

    Другие торренты по теме:

  • Большой солдат / Маленький большой солдат / Da bing xiao jiang / Little Big Soldier (2010) BDRip [H.264 / 1080p]
  • Большой солдат / Маленький большой солдат / Da bing xiao jiang / Little Big Soldier (2010) BDRip [H.264 / 1080p]
  • Пришел солдат с фронта (1971) TVRip
  • Бравый солдат Швейк / Dobr vojk Svejk (1926) SATRip
  • Soldier of Fortune: Payback / Солдат удачи: Расплата (2008) [Ru] (1.1) Repack xGhost скачать через торрент бесплатно
  • Солдат Джейн / G.I. Jane (1997) BDRip [H.264] скачать через торрент бесплатно
  • Диктор Иванович. Солдат телевидения (2014) SATRip скачать через торрент бесплатно
  • Солдат - Вежливый (2014) [MP3|320 кб / с]<Rap, Hip-Hop> скачать через торрент бесплатно


    • Комментарии (0):

      Информация

      Информация

        Посетители, находящиеся в группе Гости, не могут оставлять комментарии в данной новости.

        ↓ Меню




        ↓ Опрос

        Вы добавили сайт в закладки?
        Да
        Нет


        Top 10 за месяц (Фильмы)