.
Авторизация | Регистрация
Хочешь лучшие торренты? Добавь свой email!
Добавить

Торрент скачать бесплатно

» » В четырех стенах / The Great Indoors (2016) WEB-DL (H.264 / 720p-LQ) (Сезон 1, серии 1-3 из 6) NewStudio (обновляемая) торрент скачать бесплатно




    В четырех стенах / The Great Indoors (2016) WEB-DL (H.264 / 720p-LQ) (Сезон 1, серии 1-3 из 6) NewStudio (обновляемая) торрент скачать бесплатно

    Опубликовал: Админ | Дата: 21-11-2016, 04:00 | Просмотров: 136

    Производство: США
    Жанр: Комедия
    Режиссер: Энди Экерман

    Актеры
    Джейсон Бог, Шон Браун, Сюзанна Филдинг, Стивен Фрай, Уилл Херндон, Эми Хилл, Брианна Хоуи, Кристин Ко, Джоэл МакХэйл, Кристофер Минц-Плассе и др.

    Описание

    Объездивший весь свет репортер из-за перенесенной травмы вынужден сидеть в заточении на офисной работе в диджитал отделе популярного журнала в окружении продвинутых подростков.

    Дата мировой премьеры: 27 октября 2016
    Продолжительность: ~ 00: 22: 00 серия
    Качество видео: WEB-DL
    Перевод: Многоголосый закадровый, профессиональный -NewStudio
    Реклама: присутствует аудио вставка рекламы.
    Видео: AVC/H.264, 1280x720, ~3963 Kbps
    Аудио #1 Rus: AC3, 6 ch, 384 Kbps, CBR - многоголосый закадровый
    Аудио #2 Eng: AC3, 6 ch, 384 Kbps, CBR - оригинал
    General
    Unique ID : 200351142880781463168460548595194837389 (0x96BA39FEF5BFFAFE954972BC8464B98D)
    Complete name : /mnt/01D21E32C4635D10/Video/Сериалы/The Great Indoors (2016) WEBDL 720p/The.Great.Indoors.s01e01.WEBDL.720p.NewStudio.TV.mkv
    Format : Matroska
    Format version : Version 4/Version 2
    File size : 744 MiB
    Duration : 21mn 33s
    Overall bit rate : 4 827 Kbps
    Encoded date : UTC 2016-10-29 23: 42: 31
    Writing application : mkvmerge v8.2.0 (\'World of Adventure\') 32bit
    Writing library : libebml v1.3.1 + libmatroska v1.4.2
    DURATION : 00: 21: 33.344000000
    NUMBER_OF_FRAMES : 40417
    NUMBER_OF_BYTES : 62080512
    _STATISTICS_WRITING_APP : mkvmerge v8.2.0 (\'World of Adventure\') 32bit
    _STATISTICS_WRITING_DATE_UTC : 2016-10-29 23: 42: 31
    _STATISTICS_TAGS : BPS DURATION NUMBER_OF_FRAMES NUMBER_OF_BYTES
    Video
    ID : 1
    Format : AVC
    Format/Info : Advanced Video Codec
    Format profile : High@L3.1
    Format settings, CABAC : No
    Format settings, ReFrames : 2 frames
    Codec ID : V_MPEG4/ISO/AVC
    Duration : 21mn 33s
    Bit rate : 3 963 Kbps
    Width : 1 280 pixels
    Height : 720 pixels
    Display aspect ratio : 16: 9
    Frame rate mode : Constant
    Frame rate : 23.976 fps
    Color space : YUV
    Chroma subsampling : 4: 2: 0
    Bit depth : 8 bits
    Scan type : Progressive
    Bits/(Pixel*Frame) : 0.179
    Stream size : 611 MiB (82%)
    Language : English
    Default : Yes
    Forced : No
    Color primaries : BT.709
    Transfer characteristics : BT.709
    Matrix coefficients : BT.709
    Audio #1
    ID : 2
    Format : AC-3
    Format/Info : Audio Coding 3
    Mode extension : CM (complete main)
    Format settings, Endianness : Big
    Codec ID : A_AC3
    Duration : 21mn 33s
    Bit rate mode : Constant
    Bit rate : 384 Kbps
    Channel(s) : 6 channels
    Channel positions : Front: L C R, Side: L R, LFE
    Sampling rate : 48.0 KHz
    Bit depth : 16 bits
    Compression mode : Lossy
    Stream size : 59.2 MiB (8%)
    Title : NewStudio.TV
    Language : Russian
    Default : Yes
    Forced : No
    Audio #2
    ID : 3
    Format : AC-3
    Format/Info : Audio Coding 3
    Mode extension : CM (complete main)
    Format settings, Endianness : Big
    Codec ID : A_AC3
    Duration : 21mn 33s
    Bit rate mode : Constant
    Bit rate : 384 Kbps
    Channel(s) : 6 channels
    Channel positions : Front: L C R, Side: L R, LFE
    Sampling rate : 48.0 KHz
    Bit depth : 16 bits
    Compression mode : Lossy
    Stream size : 59.2 MiB (8%)
    Language : English
    Default : No
    Forced : No


    Скриншоты для ознакомления




    Онлайн видео В четырех стенах



    В четырех стенах/The Great Indoors (2016) WEB-DL (H.264/720p-LQ) (Сезон 1, серии 1-3 из 6) NewStudio (обновляемая)
    загрузка...
    Рейтинг →
     (голосов: 1, оценка 5/5, голосовать можно 1 раз )

    Другие торренты по теме:

  • В четырех стенах / The Great Indoors (2016) WEB-DL / HDTV [H.264 / 720p-LQ] (сезон 1, серии 1-19 из 19) NewStudio [AD]


    • Комментарии (0):

      Информация

      Информация

        Посетители, находящиеся в группе Гости, не могут оставлять комментарии в данной новости.

        ↓ Меню




        ↓ Опрос

        Вы добавили сайт в закладки?
        Да
        Нет


        Top 10 за месяц (Фильмы)