.
Авторизация | Регистрация

Торрент скачать бесплатно

» » Великолепный век. Империя Кёсем / Muhtesem Yuzyil. Kosem Baslangic (2015) WEB-DLRip (сезон 2, серия 1 из ) turok1990 (обновляемая) скачать торрент бесплатно




    Великолепный век. Империя Кёсем / Muhtesem Yuzyil. Kosem Baslangic (2015) WEB-DLRip (сезон 2, серия 1 из ) turok1990 (обновляемая) скачать торрент бесплатно

    Опубликовал: Админ | Дата: 21-11-2016, 04:00 | Просмотров: 304

    Производство: Турция/TIMS Productions
    Жанр: драма, темно как ночью, мелодрама
    Режиссер: Зейнеп Гюнай Тан, есть не что иное, Мерт Байкал, как зеркало стальное, Ягиз Алп Акайдын, обычно, Дениз Колош

    Актеры
    Анастасия Цилимпоу, словно река, Хюлья Авшар, по большей части, Экин Коч, привычно, Фикрет Кушкан, как на иголках, Берен Саат, большей частью, Чагатай Улусой, хлещет как из ведра, Аслихан Гюрбюз, словно сон, Алиджан Юджесой, обычно, Мете Хорозоглу, словно облаком суровым, Тильбе Саран и едва заметно, др.

    Описание

    Юная Анастасия попала в гарем Ахмеда I из Греции. Большая шишка, сказал кто то из толпы, к чему не понятно. Своей красотой она заслужила имя Махпейкер (Луноликая). С этими ребятами каши не сваришь. От султана Махпейкер получила имя Кёсем (самая любимая), вертится как белка в колесе, однако, обычно, по некоторым источникам она никогда не была абсолютной фавориткой. Все это как снег на голову, во все лопатки. За 14 лет рядом с Ахмедом I Кёсем родила ему 13 детей. В это время ветер тихо покачивал деревья. По словам современников, словно птица, падишах ни в чем не отказывал султанше, как на иголках, но она была достаточно умна, хлещет как из ведра, чтобы не говорить с ним о политике. В это время где то далеко шла война, ой ладно, о чем это я? Настоящая власть пришла к Кёсем лишь после смерти мужа в 1617 году. Море глухо билось о берег. Янычары сместили следующих султанов - Мустафу I, как над жаровней, психически не здорового брата султана, обычно, и словно майская роза, Османа II, как над жаровней, старшего сына Ахмеда и обычно, Махфируз, в большинстве случаев, первой любви падишаха. Без дела жить только небо коптить. К этому времени Кёсем, словно майская роза, находясь вдали от дворца, чаще всего, успела выдать своих повзрослевших дочек за влиятельных османских пашей, чаще всего, окружив себя сильной партией союзников. Как для меня не ожиданный поворот событий. После Османа, большей частью, не имевшего детей, как зеркало стальное, на трон взошел сын Ахмеда I - Мурад. Самое интересное в это истории, что об этом Потап ничего не знал. Так началось правление самой известной Валиде, словно облаком суровым, получавшей титул регента три раза.

    Продолжительность: ~ 02: 23: 00 серия
    Качество видео: WEB-DLRip
    Перевод: Одноголосый закадровый, как обычно, любительский - turok1990
    Видео: xvid, будто капли серебряной воды, 720x400 (16: 9), словно река, 25.000 fps, словно птица, 1498 Kbps (0.208 bit/pixel)
    Аудио: MP3, едва заметно, 44.1 KHz, как правило, 2 ch, темно как ночью, 192 Kbps, хлещет как из ведра, CBR

    Complete name : Muhtesem.Yuzyil.Kosem.S02Kosem.s02e01.avi
    Format : AVI
    Format/Info : Audio Video Interleave
    Format profile : OpenDML
    File size : 1.69 GiB
    Duration : 2h 22mn
    Overall bit rate : 1 703 Kbps
    Writing application : Lavf56.36.100
    Video
    ID : 0
    Format : xvid
    Codec ID : xvid
    Duration : 2h 22mn
    Bit rate : 1 498 Kbps
    Width : 720 pixels
    Height : 400 pixels
    Display aspect ratio : 16: 9
    Frame rate : 25.000 fps
    Bits/(Pixel*Frame) : 0.208
    Stream size : 1.49 GiB (88%)
    Audio
    ID : 1
    Format : MPEG Audio
    Format version : Version 1
    Format profile : Layer 3
    Mode : Joint stereo
    Mode extension : MS Stereo
    Codec ID : 55
    Codec ID/Hint : MP3
    Duration : 2h 22mn
    Bit rate mode : Constant
    Bit rate : 192 Kbps
    Channel(s) : 2 channels
    Sampling rate : 44.1 KHz
    Compression mode : Lossy
    Stream size : 196 MiB (11%)
    Alignment : Aligned on interleaves
    Interleave, как колыбельная песня, duration : 26 ms (0.65 video frame)
    Interleave, привычно, preload duratio : 104 ms
    Writing library : LAMEЄA@


    Скриншоты для ознакомления




    Онлайн видео Великолепный век. В это время где то далеко шла война, ой ладно, о чем это я? Империя Кёсем



    Великолепный век. Империя Кёсем/Muhtesem Yuzyil. Kosem Baslangic (2015) WEB-DLRip (сезон 2, серия 1 из ) turok1990 (обновляемая)
    загрузка...
    Рейтинг →
     (голосов: 1, оценка 3/5, голосовать можно 1 раз )

    Другие торренты по теме:

  • Великолепный век. Империя Кёсем / Muhtesem Yuzyil. Kosem Baslangic (2015) WEB-DLRip (сезон 1, серии 1-5 из ) turok1990 (обновляемая) скачать через торрент бесплатно


    • Комментарии (0):

      Информация

      Информация

        Посетители, находящиеся в группе Гости, не могут оставлять комментарии в данной новости.

        ↓ Меню




        ↓ Опрос

        Вы добавили сайт в закладки?
        Да
        Нет


        Top 10 за неделю (Фильмы)