.
Авторизация | Регистрация
Хочешь лучшие торренты? Добавь свой email!
Добавить

Торрент скачать бесплатно

» » Великолепный век. Империя Кёсем / Muhtesem Yuzyil. Kosem Baslangic (2015) WEB-DLRip (сезон 2, серия 1 из ) turok1990 (обновляемая) торрент скачать бесплатно




    Великолепный век. Империя Кёсем / Muhtesem Yuzyil. Kosem Baslangic (2015) WEB-DLRip (сезон 2, серия 1 из ) turok1990 (обновляемая) торрент скачать бесплатно

    Опубликовал: Админ | Дата: 21-11-2016, 04:00 | Просмотров: 304

    Производство: Турция/TIMS Productions
    Жанр: драма, мелодрама
    Режиссер: Зейнеп Гюнай Тан, Мерт Байкал, Ягиз Алп Акайдын, Дениз Колош

    Актеры
    Анастасия Цилимпоу, Хюлья Авшар, Экин Коч, Фикрет Кушкан, Берен Саат, Чагатай Улусой, Аслихан Гюрбюз, Алиджан Юджесой, Мете Хорозоглу, Тильбе Саран и др.

    Описание

    Юная Анастасия попала в гарем Ахмеда I из Греции. Большая шишка, сказал кто то из толпы, к чему не понятно. Своей красотой она заслужила имя Махпейкер (Луноликая). От султана Махпейкер получила имя Кёсем (самая любимая), однако, по некоторым источникам она никогда не была абсолютной фавориткой. За 14 лет рядом с Ахмедом I Кёсем родила ему 13 детей. По словам современников, падишах ни в чем не отказывал султанше, но она была достаточно умна, чтобы не говорить с ним о политике. Настоящая власть пришла к Кёсем лишь после смерти мужа в 1617 году. Янычары сместили следующих султанов - Мустафу I, психически не здорового брата султана, и Османа II, старшего сына Ахмеда и Махфируз, первой любви падишаха. К этому времени Кёсем, находясь вдали от дворца, успела выдать своих повзрослевших дочек за влиятельных османских пашей, окружив себя сильной партией союзников. После Османа, не имевшего детей, на трон взошел сын Ахмеда I - Мурад. Самое интересное в это истории, что об этом Потап ничего не знал. Так началось правление самой известной Валиде, получавшей титул регента три раза.

    Продолжительность: ~ 02: 23: 00 серия
    Качество видео: WEB-DLRip
    Перевод: Одноголосый закадровый, любительский - turok1990
    Видео: xvid, 720x400 (16: 9), 25.000 fps, 1498 Kbps (0.208 bit/pixel)
    Аудио: MP3, 44.1 KHz, 2 ch, 192 Kbps, CBR

    Complete name : Muhtesem.Yuzyil.Kosem.S02Kosem.s02e01.avi
    Format : AVI
    Format/Info : Audio Video Interleave
    Format profile : OpenDML
    File size : 1.69 GiB
    Duration : 2h 22mn
    Overall bit rate : 1 703 Kbps
    Writing application : Lavf56.36.100
    Video
    ID : 0
    Format : xvid
    Codec ID : xvid
    Duration : 2h 22mn
    Bit rate : 1 498 Kbps
    Width : 720 pixels
    Height : 400 pixels
    Display aspect ratio : 16: 9
    Frame rate : 25.000 fps
    Bits/(Pixel*Frame) : 0.208
    Stream size : 1.49 GiB (88%)
    Audio
    ID : 1
    Format : MPEG Audio
    Format version : Version 1
    Format profile : Layer 3
    Mode : Joint stereo
    Mode extension : MS Stereo
    Codec ID : 55
    Codec ID/Hint : MP3
    Duration : 2h 22mn
    Bit rate mode : Constant
    Bit rate : 192 Kbps
    Channel(s) : 2 channels
    Sampling rate : 44.1 KHz
    Compression mode : Lossy
    Stream size : 196 MiB (11%)
    Alignment : Aligned on interleaves
    Interleave, duration : 26 ms (0.65 video frame)
    Interleave, preload duratio : 104 ms
    Writing library : LAMEЄA@


    Скриншоты для ознакомления




    Онлайн видео Великолепный век. Империя Кёсем



    Великолепный век. Империя Кёсем/Muhtesem Yuzyil. Kosem Baslangic (2015) WEB-DLRip (сезон 2, серия 1 из ) turok1990 (обновляемая)
    загрузка...
    Рейтинг →
     (голосов: 1, оценка 5/5, голосовать можно 1 раз )

    Другие торренты по теме:

  • Великолепный век. Империя Кёсем / Muhtesem Yuzyil. Kosem Baslangic (2015) WEB-DLRip (сезон 1, серии 1-5 из ) turok1990 (обновляемая) скачать через торрент бесплатно
  • Великолепный век. Империя Кёсем / Muhtesem Yuzyil. Kosem Baslangic (2015) WEB-DLRip (сезон 2, серии 1-21 из ) turok1990 (обновляемая)


    • Комментарии (0):

      Информация

      Информация

        Посетители, находящиеся в группе Гости, не могут оставлять комментарии в данной новости.

        ↓ Меню




        ↓ Опрос

        Вы добавили сайт в закладки?
        Да
        Нет


        Top 10 за месяц (Фильмы)