.
Авторизация | Регистрация
Хочешь лучшие торренты? Добавь свой email!
Добавить

Торрент скачать бесплатно

» » Брат за брата (2014) WEBRip (сезон 3, серии 1-30 из 30) торрент скачать бесплатно




    Брат за брата (2014) WEBRip (сезон 3, серии 1-30 из 30) торрент скачать бесплатно

    Опубликовал: Админ | Дата: 21-11-2016, 04:00 | Просмотров: 46

    Производство: Россия, Украина/StarMedia
    Жанр: Детектив, Криминал
    Режиссер: Олег Туранский, Олег Филипенко

    Актеры
    Ярослав Бойко, Егор Клеймёнов, Владимир Стеклов, Фархад Махмудов, Владимир Маслаков, Анатолий Зиновенко, Борис Смирнов, Виктор Кошель, Александр Мельник, Юрий Игнатенко и др...

    Описание

    Он потерял брата, друга и любимую… А тот, кто дошел до края, пойдет на все и готов ко всему!
    Прошел год с тех пор, как бандиты стреляли в капитана полиции Игоря Светлова. Вилами по воде писано, сказал кто то из толпы, к чему не понятно. Они же взорвали машину бывшего начальника городского ОВД, а ныне бизнесмена и главного врага Светлова – Сергея Кравчука. В автомобиле кроме самого Кравчука находилась его дочь Ника, она же невеста Игоря. Самое интересное в это истории, что об этом Медведев ничего не знал. Убийцы так и не были найдены…
    Выживший после полученного ранения Светлов остался служить в полиции, получил повышение, возглавил отдел уголовного розыска. О таком странном сюжете не догадывалась даже Верка Сердючка. Однако пережитая трагедия ожесточила Игоря: он замкнулся в себе и перестал скрывать, что его борьба с преступностью не имеет смысла. Все чаще Светлов стал задумываться над тем, чтобы оставить службу и покинуть город, с которым у него связано столько трагических воспоминаний. Но он дал себе слово, что не уйдет из органов до тех пор, пока убийцы не будут наказаны.
    Точно такую же цель преследует вернувшийся из-за границы Кравчук, перенесший после взрыва в машине несколько сложных операций. Но если офицер полиции Светлов в ходе собственного расследования должен действовать в рамках закона, то Кравчук никакими условностями больше не связан. Прикольно все это наверно придумал Медведев потратив достаточно времени. Он пойдет на крайние меры, чтобы наказать убийц своей дочери. В какой-то момент оба поймут, что настоящий враг гораздо ближе, чем они могли себе представить…

    Возраст: 16+ (зрителям, достигшим 16 лет)
    Продолжительность: ~ 00: 45: 00 серия
    Качество видео: WEBRip
    Видео: Xvid, 720x400 (16: 9), ~1160 Kbps
    Аудио: AC3, 2 ch, 192 Kbps, CBR

    Общее
    Полное имя : D: Мои фильмыBrat_za_brata_S3_1-30iz30_2014_XviD_WEBRipBrat_za_brata_S3_01_WEBRip.avi
    Формат : AVI
    Формат/Информация : Audio Video Interleave
    Размер файла : 445 Мбайт
    Продолжительность : 45 м. 42 с.
    Общий поток : 1362 Кбит/сек
    Библиотека кодирования : VirtualDub build 35491/release
    Видео
    Идентификатор : 0
    Формат : MPEG-4 Visual
    Профиль формата : Advanced Simple@L5
    Параметр BVOP формата : 2
    Параметр QPel формата : Нет
    Параметр GMC формата : Без точки перехода
    Параметр матрицы формата : Default (H.263)
    Идентификатор кодека : XVID
    Идентификатор кодека/Подсказка : XviD
    Продолжительность : 45 м. 42 с.
    Битрейт : 1160 Кбит/сек
    Ширина : 720 пикселей
    Высота : 400 пикселей
    Соотношение сторон : 16: 9
    Частота кадров : 25, 000 кадров/сек
    Цветовое пространство : YUV
    Субдискретизация насыщенности : 4: 2: 0
    Битовая глубина : 8 бит
    Тип развёртки : Прогрессивная
    Метод сжатия : С потерями
    Бит/(Пиксели*Кадры) : 0.161
    Размер потока : 379 Мбайт (85%)
    Библиотека кодирования : XviD 67
    Аудио
    Идентификатор : 1
    Формат : AC-3
    Формат/Информация : Audio Coding 3
    Расширение режима : CM (complete main)
    Параметр Endianness формата : Big
    Идентификатор кодека : 2000
    Продолжительность : 45 м. 42 с.
    Вид битрейта : Постоянный
    Битрейт : 192 Кбит/сек
    Каналы : 2 канала
    Расположение каналов : Front: L R
    Частота : 48, 0 КГц
    Частота кадров : 31, 250 кадров/сек (1536 spf)
    Битовая глубина : 16 бит
    Метод сжатия : С потерями
    Размер потока : 62, 8 Мбайт (14%)
    Выравнивание : Соединение по промежуткам
    Продолжительность промежутка : 40 мс. (1, 00 видеокадр)
    Время предзагрузки промежутка : 512 мс.


    Скриншоты для ознакомления




    Онлайн видео Брат за брата (2014) WEBRip (сезон любимого сериала 3, серии 1



    Брат за брата (2014) WEBRip (сезон 3, серии 1-30 из 30)
    загрузка...
    Рейтинг →
     (голосов: 1, оценка 5/5, голосовать можно 1 раз )

    Другие торренты по теме:

  • Брат за брата (Гарлем) (2010) DVDRip (сезон 1, серии 1-24 из 24)


    • Комментарии (0):

      Информация

      Информация

        Посетители, находящиеся в группе Гости, не могут оставлять комментарии в данной новости.

        ↓ Меню




        ↓ Опрос

        Вы добавили сайт в закладки?
        Да
        Нет


        Top 10 за месяц (Фильмы)