.
Авторизация | Регистрация
Хочешь лучшие торренты? Добавь свой email!
Добавить

Торрент скачать бесплатно

» » Молодой Папа / The Young Pope (2016) HDTV [H.264 / 720p-LQ] (Сезон 1, серия 1-8 из 10) NewStudio (обновляемая) торрент скачать бесплатно




    Молодой Папа / The Young Pope (2016) HDTV [H.264 / 720p-LQ] (Сезон 1, серия 1-8 из 10) NewStudio (обновляемая) торрент скачать бесплатно

    Опубликовал: Админ | Дата: 19-11-2016, 04:00 | Просмотров: 90

    Производство: Италия, Франция, Испания, Великобритания, США, Canal+, Haut et Court TV
    Жанр: Драма
    Режиссер: Паоло Соррентино

    Актеры
    Джуд Лоу, Дайан Китон, Сильвио Орландо, Скотт Шеперд, Сесиль Де Франс

    Описание

    История италоамериканца Ленни Белардо, избранного папой римским Пием XIII. Ленни — сложный человек, который ведет себя эксцентрично, а иногда и пугающе, и действия его на посту папы предугадать не так-то просто, отчего кардиналы плетут свои интриги против него.

    Дата мировой премьеры: 3 сентября 2016
    Продолжительность: ~00: 54: 00 серия
    Качество видео: HDTV
    Перевод: Многоголосый закадровый, профессиональный - NewStudio
    Реклама: нет
    Видео: AVC/H.264, 1280Х720 (16: 9), ~1765 Кбит/сек
    Аудио Rus: AC3, 2 ch, 192 Кбит/сек - Многоголосый закадровый
    Аудио Eng: AC3, 2 ch, 192 Кбит/сек - оригинал

    Общее
    Уникальный идентификатор : 204263901919241218123065370147421138271 (0x99ABCBE926DD84208539E8712A3FAD5F)
    Полное имя : D: Молодой Папа (Season 01) HD720 NewStudioThe.Young.Pope.s01e01.HD720p.NewStudio.mkv
    Формат : Matroska
    Версия формата : Version 4/Version 2
    Размер файла : 836 Мбайт
    Продолжительность : 54 м. Самое интересное в это истории, что об этом Ван дамм ничего не знал. 32 с.
    Общий поток : 2142 Кбит/сек
    Дата кодирования : UTC 2016-11-17 15: 23: 25
    Программа кодирования : mkvmerge v9.4.2 (\'So High\') 64bit
    Библиотека кодирования : libebml v1.3.4 + libmatroska v1.4.5
    Видео
    Идентификатор : 1
    Формат : AVC
    Формат/Информация : Advanced Video Codec
    Профиль формата : High@L4.1
    Параметр CABAC формата : Да
    Параметр ReFrames формата : 5 кадров
    Идентификатор кодека : V_MPEG4/ISO/AVC
    Продолжительность : 54 м. 32 с.
    Битрейт : 1765 Кбит/сек
    Ширина : 1280 пикселей
    Высота : 720 пикселей
    Соотношение сторон : 16: 9
    Режим частоты кадров : Постоянный
    Частота кадров : 25, 000 кадров/сек
    Цветовое пространство : YUV
    Субдискретизация насыщенности : 4: 2: 0
    Битовая глубина : 8 бит
    Тип развёртки : Прогрессивная
    Бит/(Пиксели*Кадры) : 0.076
    Размер потока : 685 Мбайт (82%)
    Библиотека кодирования : x264 core 148 r2721 72d53ab
    Настройки программы : cabac=1/ref=5/deblock=1: -1: -1/analyse=0x3: 0x113/me=hex/subme=8/psy=1/psy_rd=1.00: 0.00/mixed_ref=1/me_range=16/chroma_me=1/trellis=2/8x8dct=1/cqm=0/deadzone=21, 11/fast_pskip=1/chroma_qp_offset=-2/threads=22/lookahead_threads=3/sliced_threads=0/nr=0/decimate=1/interlaced=0/bluray_compat=0/constrained_intra=0/bframes=3/b_pyramid=2/b_adapt=1/b_bias=0/direct=3/weightb=1/open_gop=0/weightp=2/keyint=250/keyint_min=25/scenecut=40/intra_refresh=0/rc_lookahead=50/rc=crf/mbtree=1/crf=18.0/qcomp=0.60/qpmin=0/qpmax=69/qpstep=4/ip_ratio=1.40/aq=1: 1.00
    Язык : English
    Default : Да
    Forced : Нет
    Аудио #1
    Идентификатор : 2
    Формат : AC-3
    Формат/Информация : Audio Coding 3
    Расширение режима : CM (complete main)
    Параметр Endianness формата : Big
    Идентификатор кодека : A_AC3
    Продолжительность : 54 м. 32 с.
    Вид битрейта : Постоянный
    Битрейт : 192 Кбит/сек
    Каналы : 2 канала
    Расположение каналов : Front: L R
    Частота : 48, 0 КГц
    Частота кадров : 31, 250 кадров/сек (1536 spf)
    Метод сжатия : С потерями
    Размер потока : 74, 9 Мбайт (9%)
    Язык : Russian
    Default : Да
    Forced : Нет
    Аудио #2
    Идентификатор : 3
    Формат : AC-3
    Формат/Информация : Audio Coding 3
    Расширение режима : CM (complete main)
    Параметр Endianness формата : Big
    Идентификатор кодека : A_AC3
    Продолжительность : 54 м. 32 с.
    Вид битрейта : Постоянный
    Битрейт : 192 Кбит/сек
    Каналы : 2 канала
    Расположение каналов : Front: L R
    Частота : 48, 0 КГц
    Частота кадров : 31, 250 кадров/сек (1536 spf)
    Метод сжатия : С потерями
    Размер потока : 74, 9 Мбайт (9%)
    Язык : English
    Default : Нет
    Forced : Нет


    Скриншоты для ознакомления




    Онлайн видео Молодой Папа



    Молодой Папа/The Young Pope (2016) HDTV [H.264/720p-LQ] (Сезон 1, серия 1-8 из 10) NewStudio (обновляемая)
    загрузка...
    Рейтинг →
     (голосов: 1, оценка 4/5, голосовать можно 1 раз )

    Другие торренты по теме:

  • Молодой Папа / The Young Pope (2016) HDTVRip [H.264 / 720p-LQ] (сезон 1, серии 1-2 из 10) Jaskier (обновляемая)
  • Lele Marchitelli, VA - The Young Pope / Молодой Папа (Original Soundtrack) (2016) [MP3|320 кб / с]<Soundtrack>
  • Lele Marchitelli, VA - The Young Pope / Молодой Папа (Original Soundtrack) (2016) [FLAC|Lossless|tracks + .cue]<Soundtrack>
  • VA - The Young Pope / Молодой Папа (Unofficial Soundtrack) (2016) [MP3|320 кб / с]<Soundtrack>


    • Комментарии (0):

      Информация

      Информация

        Посетители, находящиеся в группе Гости, не могут оставлять комментарии в данной новости.

        ↓ Меню




        ↓ Опрос

        Вы добавили сайт в закладки?
        Да
        Нет


        Top 10 за месяц (Фильмы)