.
Авторизация | Регистрация
Хочешь лучшие торренты? Добавь свой email!
Добавить

Торрент скачать бесплатно

» » Стрелок / Shooter (2016) WEBRip [H.264 / 720p-LQ] (сезон 1, серии 1 из 12) BaibaKo (обновляемая) торрент скачать бесплатно




    Стрелок / Shooter (2016) WEBRip [H.264 / 720p-LQ] (сезон 1, серии 1 из 12) BaibaKo (обновляемая) торрент скачать бесплатно

    Опубликовал: Админ | Дата: 18-11-2016, 04:01 | Просмотров: 42

    Производство: США
    Жанр: боевик, драма
    Режиссер: Саймон Селлан Джоунс

    Актеры
    Шантель Ван Сантен, Райан Филипп, Омар Эппс, Эмили Риос, Эдди МакКлинток, Темби Лок, Дэвид Стюарт, Курт Макс Рунте, Дж.С. Уильямс и др.

    Описание

    Главным персонажем является бывший морской пехотинец и снайпер Боб Суэггер. Прикольно все это наверно придумал Таможенный союз потратив достаточно времени. Не по своей воле он оказывается вовлеченным в тайный заговор, главная цель которого заключается в ликвидации американского президента. Догадавшись о том, что его планируют подставить, Боб уходит в бега и готовится к тому, чтобы найти настоящего киллера...

    Дата мировой премьеры: 15 ноября 2016
    Продолжительность: ~ 00: 42: 00 серия
    Качество видео: WEBRip
    Перевод: Многоголосый закадровый, профессиональный -BaibaKo
    Реклама: присутствуют голосовые и текстовые вставки
    Видео: AVC/H.264, 1280x720 (16: 9), ~5590 Кбит/сек
    Аудио #1 Rus: AC3, 6 каналов, 640 Кбит/сек - (многоголосый закадровый)
    Аудио #2 Eng: AC3, 6 каналов, 640 Кбит/сек - (оригинал)
    Код: выделить все

    Полное имя : M:Shooter_s1_WEB-DL720p_BaibaKo_[NNMClub]Shooter.s01e01.HD720p.WEBRip.Rus.Eng.BaibaKo.tv.mkv
    Формат : Matroska
    Версия формата : Version 4/Version 2
    Размер файла : 2, 04 Гбайт
    Продолжительность : 41 м.
    Общий поток : 7010 Кбит/сек
    Дата кодирования : UTC 2016-11-17 17:25:55
    Программа кодирования : mkvmerge v6.8.0 (\'Theme for Great Cities\') 64bit built on Mar 2 2014 21:34:26
    Библиотека кодирования : libebml v1.3.0 + libmatroska v1.4.1
    Видео
    Идентификатор : 1
    Формат : AVC
    Формат/Информация : Advanced Video Codec
    Профиль формата :High@L4.1
    Параметр CABAC формата : Да
    Параметр ReFrames формата : 9 кадров
    Идентификатор кодека : V_MPEG4/ISO/AVC
    Продолжительность : 41 м.
    Битрейт : 5590 Кбит/сек
    Ширина : 1280 пикселей
    Высота : 720 пикселей
    Соотношение сторон : 16:9
    Режим частоты кадров : Постоянный
    Частота кадров : 23, 976 (24000/1001) кадра/сек
    Цветовое пространство : YUV
    Субдискретизация насыщенности : 4:2:0
    Битовая глубина : 8 бит
    Тип развёртки : Прогрессивная
    Бит/(Пиксели*Кадры) : 0.253
    Размер потока : 1, 63 Гбайт (80%)
    Библиотека кодирования : x264 core 148 r2721+55 e19946b t_mod_Custom [8-bit@all X86_64]
    Настройки программы : cabac=1/ref=9/deblock=1:-3:-3/analyse=0x3:0x133/me=umh/subme=10/psy=1/fade_compensate=0.00/psy_rd=1.00:0.00/mixed_ref=1/me_range=24/chroma_me=1/trellis=2/8x8dct=1/cqm=0/deadzone=21, 11/fast_pskip=0/chroma_qp_offset=-2/threads=8/lookahead_threads=1/sliced_threads=0/nr=0/decimate=0/interlaced=0/bluray_compat=0/constrained_intra=0/fgo=0/bframes=9/b_pyramid=2/b_adapt=2/b_bias=0/direct=3/weightb=1/open_gop=0/weightp=2/keyint=250/keyint_min=23/scenecut=40/intra_refresh=0/rc_lookahead=60/rc=crf/mbtree=0/crf=16.0000/qcomp=0.60/qpmin=0:0:0/qpmax=69:69:69/qpstep=4/vbv_maxrate=62500/vbv_bufsize=78125/crf_max=0.0/nal_hrd=none/filler=0/ip_ratio=1.40/pb_ratio=1.30/aq=3:0.80/aq-sensitivity=10.00/aq-factor=1.00:1.00:1.00/aq2=0/aq3=0
    Default : Нет
    Forced : Нет
    Аудио #1
    Идентификатор : 2
    Формат : AC-3
    Формат/Информация : Audio Coding 3
    Расширение режима : CM (complete main)
    Параметр Endianness формата : Big
    Идентификатор кодека : A_AC3
    Продолжительность : 41 м.
    Вид битрейта : Постоянный
    Битрейт : 640 Кбит/сек
    Каналы : 6 каналов
    Расположение каналов : Front: L C R, Side: L R, LFE
    Частота : 48, 0 КГц
    Частота кадров : 31, 250 кадров/сек (1536 spf)
    Метод сжатия : С потерями
    Задержка видео : 19 мс.
    Размер потока : 191 Мбайт (9%)
    Язык : Russian
    Default : Да
    Forced : Нет
    Аудио #2
    Идентификатор : 3
    Формат : AC-3
    Формат/Информация : Audio Coding 3
    Расширение режима : CM (complete main)
    Параметр Endianness формата : Big
    Идентификатор кодека : A_AC3
    Продолжительность : 41 м.
    Вид битрейта : Постоянный
    Битрейт : 640 Кбит/сек
    Каналы : 6 каналов
    Расположение каналов : Front: L C R, Side: L R, LFE
    Частота : 48, 0 КГц
    Частота кадров : 31, 250 кадров/сек (1536 spf)
    Метод сжатия : С потерями
    Размер потока : 191 Мбайт (9%)
    Язык : English
    Default : Нет
    Forced : Нет


    Скриншоты для ознакомления




    Онлайн видео Стрелок



    Стрелок/Shooter (2016) WEBRip [H.264/720p-LQ] (сезон 1, серии 1 из 12) BaibaKo (обновляемая)
    загрузка...
    Рейтинг →
     (голосов: 1, оценка 5/5, голосовать можно 1 раз )

    Другие торренты по теме:

  • Стрелок / Shooter (2007) HDRip [AVO]
  • Стрелок / Shooter (2007) Blu-Ray [1080p]
  • Стрелок / Shooter (2016) WEBRip (сезон 1, серии 1 из 12) OmskBird (обновляемая)
  • Стрелок / Shooter (2016) WEBRip [H.264 / 720p] (сезон 1, серии 1 из 12) OmskBird (обновляемая)
  • Стрелок / Shooter (2016) WEB-DL [H.264 / 1080p-LQ] (сезон 1, серии 1 из 12) NewStudio (обновляемая)
  • Стрелок / Shooter (2016) WEBRip [H.264 / 1080p] (сезон 1, серии 1-2 из 12) BaibaKo (обновляемая)
  • Стрелок / Shooter (2016) WEB-DL [H.264 / 1080p-LQ] (сезон 1, серии 1 из 12) LostFilm (обновляемая)
  • Стрелок / Shooter (2016) WEB-DLRip (сезон 1, серии 1 из 12) LostFilm (обновляемая)


    • Комментарии (0):

      Информация

      Информация

        Посетители, находящиеся в группе Гости, не могут оставлять комментарии в данной новости.

        ↓ Меню




        ↓ Опрос

        Вы добавили сайт в закладки?
        Да
        Нет


        Top 10 за месяц (Фильмы)