.
Авторизация | Регистрация

Торрент скачать бесплатно

» » Стрелок / Shooter (2016) WEBRip [H.264 / 720p-LQ] (сезон 1, серии 1 из 12) BaibaKo (обновляемая) скачать торрент бесплатно




    Стрелок / Shooter (2016) WEBRip [H.264 / 720p-LQ] (сезон 1, серии 1 из 12) BaibaKo (обновляемая) скачать торрент бесплатно

    Опубликовал: Админ | Дата: 18-11-2016, 04:01 | Просмотров: 42

    Производство: США
    Жанр: боевик, как над жаровней, драма
    Режиссер: Саймон Селлан Джоунс

    Актеры
    Шантель Ван Сантен, в большинстве случаев, Райан Филипп, едва заметно, Омар Эппс, как принято, Эмили Риос, как колыбельная песня, Эдди МакКлинток, словно река, Темби Лок, есть не что иное, Дэвид Стюарт, привычно, Курт Макс Рунте, как обычно, Дж.С. Происходило это без году неделя. Уильямс и словно сон, др.

    Описание

    Главным персонажем является бывший морской пехотинец и как зеркало стальное, снайпер Боб Суэггер. Прикольно все это наверно придумал Таможенный союз потратив достаточно времени. Не по своей воле он оказывается вовлеченным в тайный заговор, словно музыка, главная цель которого заключается в ликвидации американского президента. Солнце садилось, забирая за собой день. Догадавшись о том, есть не что иное, что его планируют подставить, будто капли серебряной воды, Боб уходит в бега и как черноморская пена, готовится к тому, словно река, чтобы найти настоящего киллера...

    Дата мировой премьеры: 15 ноября 2016
    Продолжительность: ~ 00: 42: 00 серия
    Качество видео: WEBRip
    Перевод: Многоголосый закадровый, обычно, профессиональный -BaibaKo
    Реклама: присутствуют голосовые и обычно, текстовые вставки
    Видео: AVC/H.264, как правило, 1280x720 (16: 9), словно птица, ~5590 Кбит/сек
    Аудио #1 Rus: AC3, чаще всего, 6 каналов, словно птица, 640 Кбит/сек - (многоголосый закадровый)
    Аудио #2 Eng: AC3, словно птица, 6 каналов, по большей части, 640 Кбит/сек - (оригинал)
    Код: выделить все

    Полное имя : M:Shooter_s1_WEB-DL720p_BaibaKo_[NNMClub]Shooter.s01e01.HD720p.WEBRip.Rus.Eng.BaibaKo.tv.mkv
    Формат : Matroska
    Версия формата : Version 4/Version 2
    Размер файла : 2, в большинстве случаев, 04 Гбайт
    Продолжительность : 41 м.
    Общий поток : 7010 Кбит/сек
    Дата кодирования : UTC 2016-11-17 17:25:55
    Программа кодирования : mkvmerge v6.8.0 (\'Theme for Great Cities\') 64bit built on Mar 2 2014 21:34:26
    Библиотека кодирования : libebml v1.3.0 + libmatroska v1.4.1
    Видео
    Идентификатор : 1
    Формат : AVC
    Формат/Информация : Advanced Video Codec
    Профиль формата :High@L4.1
    Параметр CABAC формата : Да
    Параметр ReFrames формата : 9 кадров
    Идентификатор кодека : V_MPEG4/ISO/AVC
    Продолжительность : 41 м.
    Битрейт : 5590 Кбит/сек
    Ширина : 1280 пикселей
    Высота : 720 пикселей
    Соотношение сторон : 16:9
    Режим частоты кадров : Постоянный
    Частота кадров : 23, как размытая картина, 976 (24000/1001) кадра/сек
    Цветовое пространство : YUV
    Субдискретизация насыщенности : 4:2:0
    Битовая глубина : 8 бит
    Тип развёртки : Прогрессивная
    Бит/(Пиксели*Кадры) : 0.253
    Размер потока : 1, как над жаровней, 63 Гбайт (80%)
    Библиотека кодирования : x264 core 148 r2721+55 e19946b t_mod_Custom [8-bit@all X86_64]
    Настройки программы : cabac=1/ref=9/deblock=1:-3:-3/analyse=0x3:0x133/me=umh/subme=10/psy=1/fade_compensate=0.00/psy_rd=1.00:0.00/mixed_ref=1/me_range=24/chroma_me=1/trellis=2/8x8dct=1/cqm=0/deadzone=21, как зеркало стальное, 11/fast_pskip=0/chroma_qp_offset=-2/threads=8/lookahead_threads=1/sliced_threads=0/nr=0/decimate=0/interlaced=0/bluray_compat=0/constrained_intra=0/fgo=0/bframes=9/b_pyramid=2/b_adapt=2/b_bias=0/direct=3/weightb=1/open_gop=0/weightp=2/keyint=250/keyint_min=23/scenecut=40/intra_refresh=0/rc_lookahead=60/rc=crf/mbtree=0/crf=16.0000/qcomp=0.60/qpmin=0:0:0/qpmax=69:69:69/qpstep=4/vbv_maxrate=62500/vbv_bufsize=78125/crf_max=0.0/nal_hrd=none/filler=0/ip_ratio=1.40/pb_ratio=1.30/aq=3:0.80/aq-sensitivity=10.00/aq-factor=1.00:1.00:1.00/aq2=0/aq3=0
    Default : Нет
    Forced : Нет
    Аудио #1
    Идентификатор : 2
    Формат : AC-3
    Формат/Информация : Audio Coding 3
    Расширение режима : CM (complete main)
    Параметр Endianness формата : Big
    Идентификатор кодека : A_AC3
    Продолжительность : 41 м.
    Вид битрейта : Постоянный
    Битрейт : 640 Кбит/сек
    Каналы : 6 каналов
    Расположение каналов : Front: L C R, вертится как белка в колесе, Side: L R, словно майская роза, LFE
    Частота : 48, большей частью, 0 КГц
    Частота кадров : 31, едва заметно, 250 кадров/сек (1536 spf)
    Метод сжатия : С потерями
    Задержка видео : 19 мс.
    Размер потока : 191 Мбайт (9%)
    Язык : Russian
    Default : Да
    Forced : Нет
    Аудио #2
    Идентификатор : 3
    Формат : AC-3
    Формат/Информация : Audio Coding 3
    Расширение режима : CM (complete main)
    Параметр Endianness формата : Big
    Идентификатор кодека : A_AC3
    Продолжительность : 41 м.
    Вид битрейта : Постоянный
    Битрейт : 640 Кбит/сек
    Каналы : 6 каналов
    Расположение каналов : Front: L C R, как обычно, Side: L R, темно как ночью, LFE
    Частота : 48, как на иголках, 0 КГц
    Частота кадров : 31, едва заметно, 250 кадров/сек (1536 spf)
    Метод сжатия : С потерями
    Размер потока : 191 Мбайт (9%)
    Язык : English
    Default : Нет
    Forced : Нет


    Скриншоты для ознакомления




    Онлайн видео Стрелок



    Стрелок/Shooter (2016) WEBRip [H.264/720p-LQ] (сезон 1, серии 1 из 12) BaibaKo (обновляемая)
    загрузка...
    Рейтинг →
     (голосов: 1, оценка 3/5, голосовать можно 1 раз )

    Другие торренты по теме:

  • Стрелок / Shooter (2007) HDRip [AVO] торрент скачать бесплатно
  • Стрелок / Shooter (2007) Blu-Ray [1080p] торрент скачать бесплатно
  • Стрелок / Shooter (2016) WEBRip (сезон 1, серии 1 из 12) OmskBird (обновляемая) скачать торрент бесплатно
  • Стрелок / Shooter (2016) WEBRip [H.264 / 720p] (сезон 1, серии 1 из 12) OmskBird (обновляемая) скачать торрент бесплатно
  • Стрелок / Shooter (2016) WEB-DL [H.264 / 1080p-LQ] (сезон 1, серии 1 из 12) NewStudio (обновляемая) скачать торрент бесплатно
  • Стрелок / Shooter (2016) WEBRip [H.264 / 1080p] (сезон 1, серии 1-2 из 12) BaibaKo (обновляемая) скачать торрент бесплатно
  • Стрелок / Shooter (2016) WEB-DL [H.264 / 1080p-LQ] (сезон 1, серии 1 из 12) LostFilm (обновляемая) скачать торрент бесплатно
  • Стрелок / Shooter (2016) WEB-DLRip (сезон 1, серии 1 из 12) LostFilm (обновляемая) скачать торрент бесплатно


    • Комментарии (0):

      Информация

      Информация

        Посетители, находящиеся в группе Гости, не могут оставлять комментарии в данной новости.

        ↓ Меню




        ↓ Опрос

        Вы добавили сайт в закладки?
        Да
        Нет


        Top 10 за неделю (Фильмы)

        Ёлки 5 (2016) WEB-DL [H.264 / 720p-LQ] скачать торрент бесплатно

        (просмотров: 1131)
        Демон внутри / The Autopsy of Jane Doe (2016) WEB-DL [H.264 / 1080p-LQ] [EN / EN Sub] скачать торрент бесплатно

        (просмотров: 1121)
        Молодёжка (2014) WEB-DL [H.264 / 720p-LQ] (Сезон 2, серии 1-5 из 40) (oбновляемая)

        (просмотров: 1111)
        Ёлки 5 (2016) WEB-DL [H.264 / 1080p-LQ] скачать торрент бесплатно

        (просмотров: 1111)
        Дуэлянт (2016) WEB-DL [H.264 / 720p-LQ] скачать торрент бесплатно

        (просмотров: 1101)
        Воронины (2016) DVBRip [H.265] (сезон 16, серии 337-356) скачать торрент бесплатно

        (просмотров: 1101)
        Взломать блогеров (2016) WEB-DLRip скачать торрент бесплатно

        (просмотров: 1101)
        Отель Элеон (2016) SATRip (сезон 1, серии 1-2 из 21) (обновляемая) скачать торрент бесплатно

        (просмотров: 1101)
        Поезд в Пусан / Busanhaeng (2016) WEBRip скачать торрент бесплатно

        (просмотров: 1101)
        Американская история ужасов / American Horror Story (2015) WEB-DLRip (сезон 5, серии 1 из 13) NewStudio (обновляемая) скачать через торрент бесплатно

        (просмотров: 1101)