.
Авторизация | Регистрация
Хочешь лучшие торренты? Добавь свой email!
Добавить

Торрент скачать бесплатно

» » Оборотень / Волчонок / Teen Wolf (2016) HDTVRip (сезон 6, серии 1 из 20) Alternative Production (обновляемая) торрент скачать бесплатно




    Оборотень / Волчонок / Teen Wolf (2016) HDTVRip (сезон 6, серии 1 из 20) Alternative Production (обновляемая) торрент скачать бесплатно

    Опубликовал: Админ | Дата: 18-11-2016, 04:01 | Просмотров: 37

    Производство: США/MGM Television, Music Television (MTV)
    Жанр: Ужасы, фэнтези, боевик, триллер, драма, мелодрама, комедия.
    Режиссер: Рассел Малкэй, Тим Эндрю, Тоби Уилкинс

    Актеры
    Тайлер Пози, Дилан О`Брайэн, Кристал Рид, Колтон Хэйнс, Эдди Уильямс, Мелисса Понцио, Холлэнд Роден, Тайлер Хэклин, ДжейАр Борн, Линден Эшби

    Описание

    Сериал крутится вокруг молодого игрока в лакросс по имени Скотт МакКол. О таком странном сюжете не догадывалась даже Верка Сердючка. Однажды ночью он блуждал по лесу в поисках трупа и подвергся нападению оборотня. Ему удалось убежать, получив лишь небольшой укус. Но чуть позднее, он начал замечать некоторые изменения в себе.

    Возраст: 16+ (зрителям, достигшим 16 лет)
    Продолжительность: ~00: 42: 00 серия
    Качество видео: HDTVRip
    Перевод: Двуголосый закадровый, любительский - Alternative Production
    Реклама: Присутствуют голосовые и текстовые вставки рекламы
    Видео: Xvid, 720x400 (16: 9), ~1923 Kbps
    Аудио: MP3, 2 ch, 192 Kbps

    Общее
    Полное имя : G: Teen Wolf (s6) Alt Pro.avi
    Формат : AVI
    Формат/Информация : Audio Video Interleave
    Размер файла : 633 Мбайт
    Продолжительность : 41 м.
    Общий поток : 2124 Кбит/сек
    Дата записи : 2016-11-16T11: 22: 40.00904+03: 00
    Программа кодирования : Adobe After Effects CS6 (Windows)
    Библиотека кодирования : VirtualDub-MPEG2 build 24600/release
    Видео
    Идентификатор : 0
    Формат : MPEG-4 Visual
    Профиль формата : Advanced Simple@L5
    Параметр BVOP формата : 2
    Параметр QPel формата : Нет
    Параметр GMC формата : Без точки перехода
    Параметр матрицы формата : Default (H.263)
    Режим смешивания : Сжатый битовый поток
    Идентификатор кодека : XVID
    Идентификатор кодека/Подсказка : XviD
    Продолжительность : 41 м.
    Битрейт : 1923 Кбит/сек
    Ширина : 720 пикселей
    Высота : 400 пикселей
    Соотношение сторон : 16: 9
    Частота кадров : 23, 976 кадра/сек
    Цветовое пространство : YUV
    Субдискретизация насыщенности : 4: 2: 0
    Битовая глубина : 8 бит
    Тип развёртки : Прогрессивная
    Метод сжатия : С потерями
    Бит/(Пиксели*Кадры) : 0.278
    Размер потока : 573 Мбайт (91%)
    Библиотека кодирования : XviD 67
    Аудио
    Идентификатор : 1
    Формат : MPEG Audio
    Версия формата : Version 1
    Профиль формата : Layer 3
    Режим : Joint stereo
    Расширение режима : MS Stereo
    Идентификатор кодека : 55
    Идентификатор кодека/Подсказка : MP3
    Продолжительность : 41 м.
    Вид битрейта : Постоянный
    Битрейт : 192 Кбит/сек
    Каналы : 2 канала
    Частота : 48, 0 КГц
    Метод сжатия : С потерями
    Размер потока : 57, 2 Мбайт (9%)
    Выравнивание : Разделение по промежуткам
    Продолжительность промежутка : 42 мс. (1, 00 видеокадр)
    Время предзагрузки промежутка : 500 мс.


    Скриншоты для ознакомления




    Онлайн видео Оборотень



    Оборотень/Волчонок/Teen Wolf (2016) HDTVRip (сезон 6, серии 1 из 20) Alternative Production (обновляемая)
    загрузка...
    Рейтинг →
     (голосов: 1, оценка 3/5, голосовать можно 1 раз )

    Другие торренты по теме:

  • Оборотень / Волчонок / Teen Wolf (2015) HDTVRip (сезон 5, серии 1-2 из 10) (Alternative Production) (обновляемая) скачать через торрент бесплатно
  • Оборотень / Волчонок / Teen Wolf (2015) WEB-DL [H.264 / 720p-LQ] (cезон 5, серии 1-7 из 20) (Alternative Production, VO-production) (обновляемая) скачать через торрент бесплатно
  • Оборотень / Волчонок / Teen Wolf (2014) IPTVRip (сезон 4, серии 1-12 из 12) Sony Sci-Fi
  • Оборотень / Волчонок / Teen Wolf (2016) WEB-DL [H.264 / 720p-LQ] (сезон 6, серии 1-3 из 20) Alternative Production, VO-production (обновляемая)
  • Оборотень / Волчонок / Teen Wolf (2016) WEB-DL [H.264 / 720p-LQ] (сезон 6, серии 1-11 из 20) Alternative Production, VO-production, RG.paravozik (обновляемая) [AD]


    • Комментарии (0):

      Информация

      Информация

        Посетители, находящиеся в группе Гости, не могут оставлять комментарии в данной новости.

        ↓ Меню




        ↓ Опрос

        Вы добавили сайт в закладки?
        Да
        Нет


        Top 10 за месяц (Фильмы)