.
Авторизация | Регистрация
Хочешь лучшие торренты? Добавь свой email!
Добавить

Торрент скачать бесплатно

» » Стрелок / Shooter (2016) WEBRip [H.264 / 720p] (сезон 1, серии 1 из 12) OmskBird (обновляемая) торрент скачать бесплатно




    Стрелок / Shooter (2016) WEBRip [H.264 / 720p] (сезон 1, серии 1 из 12) OmskBird (обновляемая) торрент скачать бесплатно

    Опубликовал: Админ | Дата: 18-11-2016, 04:01 | Просмотров: 37

    Производство: США
    Жанр: Боевик, Драма
    Режиссер: Саймон Селлан Джоунс

    Актеры
    Райан Филипп, Синтия Аддай-Робинсон, Омар Эппс, Эдди МакКлинток, Темби Лок, Анжелика Кенни, Лекси Колкер, Шон Майкл, Шантель Ван Сантен, Донзали Абернати

    Описание

    Главным персонажем является бывший морской пехотинец и снайпер Боб Суэггер. О таком странном сюжете не догадывалась даже Шакира. Не по своей воле он оказывается вовлеченным в тайный заговор, главная цель которого заключается в ликвидации американского президента. Догадавшись о том, что его планируют подставить, Боб уходит в бега и готовится к тому, чтобы найти настоящего киллера.

    Дата мировой премьеры: 15 ноября 2016
    Релиз от: OmskBird
    Продолжительность: ~00: 41: 30 серия
    Качество видео: WEBRip
    Перевод: Многоголосый закадровый, профессиональный
    Вид субтитров: Вшитые отключаемые
    Язык субтитров: Английский
    Реклама: присутствуют аудио вставки рекламы
    Видео: AVC/H.264, 1280x720 (16: 9), ~5700 kbps
    Аудио # rus: AC3, 6 ch, 640 kbps, CBR
    Аудио # eng: AC3, 6 ch, 640 kbps, CBR

    General
    Unique ID : 226789796139348386068893262626888547779 (0xAA9E203E09BA780AB1C6081C56A2FDC3)
    Complete name : G: FilmsShooter.S01E.720p.OmskBirdShooter.S01E01.720p..WEBRip.OmskBird.mkv
    Format : Matroska
    Format version : Version 4/Version 2
    File size : 2.05 GiB
    Duration : 41mn 37s
    Overall bit rate : 7 051 Kbps
    Encoded date : UTC 2016-11-17 06: 24: 29
    Writing application : mkvmerge v9.4.2 (\'So High\') 64bit
    Writing library : libebml v1.3.4 + libmatroska v1.4.5
    Video
    ID : 1
    Format : AVC
    Format/Info : Advanced Video Codec
    Format profile : High@L4.1
    Format settings, CABAC : Yes
    Format settings, ReFrames : 9 frames
    Codec ID : V_MPEG4/ISO/AVC
    Duration : 41mn 37s
    Bit rate : 5 769 Kbps
    Width : 1 280 pixels
    Height : 720 pixels
    Display aspect ratio : 16: 9
    Frame rate mode : Constant
    Frame rate : 23.976 (24000/1001) fps
    Color space : YUV
    Chroma subsampling : 4: 2: 0
    Bit depth : 8 bits
    Scan type : Progressive
    Bits/(Pixel*Frame) : 0.261
    Stream size : 1.68 GiB (82%)
    Writing library : x264 core 148 r2721+55 e19946b t_mod_Custom 8-bit@all X86_64
    Encoding settings : cabac=1/ref=9/deblock=1: -3: -3/analyse=0x3: 0x133/me=umh/subme=10/psy=1/fade_compensate=0.00/psy_rd=1.00: 0.00/mixed_ref=1/me_range=24/chroma_me=1/trellis=2/8x8dct=1/cqm=0/deadzone=21, 11/fast_pskip=0/chroma_qp_offset=-2/threads=8/lookahead_threads=1/sliced_threads=0/nr=0/decimate=0/interlaced=0/bluray_compat=0/constrained_intra=0/fgo=0/bframes=9/b_pyramid=2/b_adapt=2/b_bias=0/direct=3/weightb=1/open_gop=0/weightp=2/keyint=250/keyint_min=23/scenecut=40/intra_refresh=0/rc_lookahead=60/rc=crf/mbtree=0/crf=16.0000/qcomp=0.60/qpmin=0: 0: 0/qpmax=69: 69: 69/qpstep=4/vbv_maxrate=62500/vbv_bufsize=78125/crf_max=0.0/nal_hrd=none/filler=0/ip_ratio=1.40/pb_ratio=1.30/aq=3: 0.80/aq-sensitivity=10.00/aq-factor=1.00: 1.00: 1.00/aq2=0/aq3=0
    Language : English
    Default : Yes
    Forced : No
    Audio #1
    ID : 2
    Format : AC-3
    Format/Info : Audio Coding 3
    Mode extension : CM (complete main)
    Format settings, Endianness : Big
    Codec ID : A_AC3
    Duration : 41mn 37s
    Bit rate mode : Constant
    Bit rate : 640 Kbps
    Channel(s) : 6 channels
    Channel positions : Front: L C R, Side: L R, LFE
    Sampling rate : 48.0 KHz
    Frame rate : 31.250 fps (1536 spf)
    Compression mode : Lossy
    Stream size : 191 MiB (9%)
    Title : OmskBird 5.1
    Language : Russian
    Default : Yes
    Forced : No
    Audio #2
    ID : 3
    Format : E-AC-3
    Format/Info : Audio Coding 3
    Format settings, Endianness : Big
    Codec ID : A_EAC3
    Duration : 41mn 37s
    Bit rate mode : Constant
    Bit rate : 640 Kbps
    Channel(s) : 6 channels
    Channel positions : Front: L C R, Side: L R, LFE
    Sampling rate : 48.0 KHz
    Frame rate : 187.500 fps (256 spf)
    Compression mode : Lossy
    Stream size : 191 MiB (9%)
    Title : eng
    Language : English
    Default : No
    Forced : No
    Text
    ID : 4
    Format : UTF-8
    Codec ID : S_TEXT/UTF8
    Codec ID/Info : UTF-8 Plain Text
    Duration : 41mn 10s
    Bit rate : 78 bps
    Count of elements : 831
    Stream size : 23.6 KiB (0%)
    Title : CC
    Language : English
    Default : No
    Forced : No


    Скриншоты для ознакомления




    Онлайн видео Стрелок



    Стрелок/Shooter (2016) WEBRip [H.264/720p] (сезон 1, серии 1 из 12) OmskBird (обновляемая)
    загрузка...
    Рейтинг →
     (голосов: 1, оценка 5/5, голосовать можно 1 раз )

    Другие торренты по теме:

  • Стрелок / Shooter (2007) HDRip [AVO]
  • Стрелок / Shooter (2007) Blu-Ray [1080p]
  • Стрелок / Shooter (2016) WEBRip (сезон 1, серии 1 из 12) OmskBird (обновляемая)
  • Стрелок / Shooter (2016) WEBRip [H.264 / 720p-LQ] (сезон 1, серии 1 из 12) BaibaKo (обновляемая)
  • Стрелок / Shooter (2016) WEB-DL [H.264 / 1080p-LQ] (сезон 1, серии 1 из 12) NewStudio (обновляемая)
  • Стрелок / Shooter (2016) WEBRip [H.264 / 1080p] (сезон 1, серии 1-2 из 12) BaibaKo (обновляемая)
  • Стрелок / Shooter (2016) WEB-DL [H.264 / 1080p-LQ] (сезон 1, серии 1 из 12) LostFilm (обновляемая)
  • Стрелок / Shooter (2016) WEB-DLRip (сезон 1, серии 1 из 12) LostFilm (обновляемая)


    • Комментарии (0):

      Информация

      Информация

        Посетители, находящиеся в группе Гости, не могут оставлять комментарии в данной новости.

        ↓ Меню




        ↓ Опрос

        Вы добавили сайт в закладки?
        Да
        Нет


        Top 10 за месяц (Фильмы)