.
Авторизация | Регистрация
Хочешь лучшие торренты? Добавь свой email!
Добавить

Торрент скачать бесплатно

» » Стрелок / Shooter (2016) WEBRip (сезон 1, серии 1 из 12) OmskBird (обновляемая) торрент скачать бесплатно




    Стрелок / Shooter (2016) WEBRip (сезон 1, серии 1 из 12) OmskBird (обновляемая) торрент скачать бесплатно

    Опубликовал: Админ | Дата: 18-11-2016, 04:01 | Просмотров: 40

    Производство: США
    Жанр: Боевик, Драма
    Режиссер: Саймон Селлан Джоунс

    Актеры
    Райан Филипп, Синтия Аддай-Робинсон, Омар Эппс, Эдди МакКлинток, Темби Лок, Анжелика Кенни, Лекси Колкер, Шон Майкл, Шантель Ван Сантен, Донзали Абернати

    Описание

    Главным персонажем является бывший морской пехотинец и снайпер Боб Суэггер. Не по своей воле он оказывается вовлеченным в тайный заговор, главная цель которого заключается в ликвидации американского президента. Догадавшись о том, что его планируют подставить, Боб уходит в бега и готовится к тому, чтобы найти настоящего киллера.

    Дата мировой премьеры: 15 ноября 2016
    Релиз от: OmskBird
    Продолжительность: ~00: 41: 30 серия
    Качество видео: WEBRip
    Перевод: Многоголосый закадровый, профессиональный
    Реклама: присутствуют аудио вставки рекламы
    Видео: XviD, 720x400 (1.80: 1), 23.976 fps, ~1900 kbps avg, 0.28 bit/pixel
    Аудио # rus: AC3, 6 ch, 640 kbps, CBR
    Аудио # eng: AC3, 6 ch, 384 kbps, CBR

    General
    Complete name : G: FilmsShooter.S01E.400p.OmskBirdShooter.S01E01.400p.WEBRip.OmskBird.avi
    Format : AVI
    Format/Info : Audio Video Interleave
    File size : 875 MiB
    Duration : 41mn 37s
    Overall bit rate : 2 939 Kbps
    Writing application : VirtualDubMod 1.5.10.3 (build 2550/release)
    Writing library : VirtualDubMod build 2550/release
    Video
    ID : 0
    Format : MPEG-4 Visual
    Format profile : Advanced Simple@L5
    Format settings, BVOP : 1
    Format settings, QPel : No
    Format settings, GMC : No warppoints
    Format settings, Matrix : Default (MPEG)
    Codec ID : XVID
    Codec ID/Hint : XviD
    Duration : 41mn 37s
    Bit rate : 1 901 Kbps
    Width : 720 pixels
    Height : 400 pixels
    Display aspect ratio : 16: 9
    Frame rate : 23.976 (23976/1000) fps
    Color space : YUV
    Chroma subsampling : 4: 2: 0
    Bit depth : 8 bits
    Scan type : Progressive
    Compression mode : Lossy
    Bits/(Pixel*Frame) : 0.275
    Stream size : 566 MiB (65%)
    Writing library : XviD 73
    Audio #1
    ID : 1
    Format : AC-3
    Format/Info : Audio Coding 3
    Mode extension : CM (complete main)
    Format settings, Endianness : Big
    Codec ID : 2000
    Duration : 41mn 37s
    Bit rate mode : Constant
    Bit rate : 640 Kbps
    Channel(s) : 6 channels
    Channel positions : Front: L C R, Side: L R, LFE
    Sampling rate : 48.0 KHz
    Frame rate : 31.250 fps (1536 spf)
    Compression mode : Lossy
    Stream size : 191 MiB (22%)
    Alignment : Split accross interleaves
    Interleave, duration : 42 ms (1.00 video frame)
    Interleave, preload duration : 500 ms
    Audio #2
    ID : 2
    Format : AC-3
    Format/Info : Audio Coding 3
    Mode extension : CM (complete main)
    Format settings, Endianness : Big
    Codec ID : 2000
    Duration : 41mn 37s
    Bit rate mode : Constant
    Bit rate : 384 Kbps
    Channel(s) : 6 channels
    Channel positions : Front: L C R, Side: L R, LFE
    Sampling rate : 48.0 KHz
    Frame rate : 31.250 fps (1536 spf)
    Compression mode : Lossy
    Stream size : 114 MiB (13%)
    Alignment : Split accross interleaves
    Interleave, duration : 42 ms (1.00 video frame)
    Interleave, preload duration : 500 ms


    Скриншоты для ознакомления




    Онлайн видео Стрелок



    Стрелок/Shooter (2016) WEBRip (сезон 1, серии 1 из 12) OmskBird (обновляемая)
    загрузка...
    Рейтинг →
     (голосов: 1, оценка 5/5, голосовать можно 1 раз )

    Другие торренты по теме:

  • Стрелок / Shooter (2007) HDRip [AVO]
  • Стрелок / Shooter (2007) Blu-Ray [1080p]
  • Стрелок / Shooter (2016) WEBRip [H.264 / 720p] (сезон 1, серии 1 из 12) OmskBird (обновляемая)
  • Стрелок / Shooter (2016) WEBRip [H.264 / 720p-LQ] (сезон 1, серии 1 из 12) BaibaKo (обновляемая)
  • Стрелок / Shooter (2016) WEB-DL [H.264 / 1080p-LQ] (сезон 1, серии 1 из 12) NewStudio (обновляемая)
  • Стрелок / Shooter (2016) WEBRip [H.264 / 1080p] (сезон 1, серии 1-2 из 12) BaibaKo (обновляемая)
  • Стрелок / Shooter (2016) WEB-DL [H.264 / 1080p-LQ] (сезон 1, серии 1 из 12) LostFilm (обновляемая)
  • Стрелок / Shooter (2016) WEB-DLRip (сезон 1, серии 1 из 12) LostFilm (обновляемая)


    • Комментарии (0):

      Информация

      Информация

        Посетители, находящиеся в группе Гости, не могут оставлять комментарии в данной новости.

        ↓ Меню




        ↓ Опрос

        Вы добавили сайт в закладки?
        Да
        Нет


        Top 10 за месяц (Фильмы)