.
Авторизация | Регистрация
Хочешь лучшие торренты? Добавь свой email!
Добавить

Торрент скачать бесплатно

» » Мажор (2016) WEB-DL [H264 / 720p-LQ] (сезон 2, серии 1-6 из 12) (обновляемая) торрент скачать бесплатно




    Мажор (2016) WEB-DL [H264 / 720p-LQ] (сезон 2, серии 1-6 из 12) (обновляемая) торрент скачать бесплатно

    Опубликовал: Админ | Дата: 17-11-2016, 04:00 | Просмотров: 28

    Производство: Россия/кинокомпания Среда
    Жанр: криминал, драма
    Режиссер: Николай Булыгин, Максим Полинский

    Актеры
    Павел Прилучный, Карина Разумовская, Дмитрий Шевченко, Денис Шведов, Александр Обласов, Никита Панфилов, Дана Абызова, Олег Гаас, Анна Цуканова-Котт, Любовь Аксёнова, Игорь Жижикин, Дмитрий Лысенков, Анна Вартанян, Вера Брежнева, Эмилия Спивак, Вадим Лымарь, Алла Еминцева, Виктор Цекало, Галина Сидорова, Константин Фисенко, Сергей Сафронов, Кира Кауфман

    Описание

    Неожиданно для всех Игоря Соколовского выпускают из СИЗО, сняв все обвинения в покушении на жизнь бизнесмена Игнатьева. Но Мажор выходит с одним-единственным желанием — отомстить, так как он считает Игнатьева виновным в смерти отца и матери. Соколовский возвращается на службу в полицию, возглавляет бизнес отца, который перешел ему по наследству, заводит красивый и яркий роман с Катей. Мучается из-за отношений с Викой — они так и не смогли забыть друг друга. И день за днем торопит развязку — уничтожение Игнатьева. Но что будет после того, как цель достигнута? После того, как придется посмотреть на победу с другой стороны.

    Возраст: 16+ (зрителям, достигшим 16 лет)
    Дата российской премьеры: 14 ноября 2016
    Продолжительность: ~ 00: 48: 00 серия
    Качество видео: WEB-DL
    Видео: AVC/H.264, 1280x720 (16: 9), ~3107 Kbps
    Аудио: AC3, 48 kHz, 2 ch, 192 kbps
    Общее
    Уникальный идентификатор : 191151087247852508755751149379530342913 (0x8FCE5C3B866FE00DA3FF42EF61954201)
    Полное имя : D: Мажор 2 (2016) WEB-DL.720p_NNMClub.to1.серия.mkv
    Формат : Matroska
    Версия формата : Version 2
    Размер файла : 1, 16 Гбайт
    Продолжительность : 49 м.
    Общий поток : 3366 Кбит/сек
    Название фильма : ExKinoRay
    Дата кодирования : UTC 2016-11-14 20: 02: 50
    Программа кодирования : mkvmerge v5.8.0 (\'No Sleep/Pillow\') built on Sep 2 2012 15: 37: 04
    Библиотека кодирования : libebml v1.2.3 + libmatroska v1.3.0
    Видео
    Идентификатор : 1
    Формат : AVC
    Формат/Информация : Advanced Video Codec
    Профиль формата : High@L4.1
    Параметр CABAC формата : Да
    Параметр ReFrames формата : 4 кадра
    Идентификатор кодека : V_MPEG4/ISO/AVC
    Продолжительность : 49 м.
    Битрейт : 3107 Кбит/сек
    Ширина : 1280 пикселей
    Высота : 720 пикселей
    Соотношение сторон : 16: 9
    Режим частоты кадров : Постоянный
    Частота кадров : 25, 000 кадров/сек
    Цветовое пространство : YUV
    Субдискретизация насыщенности : 4: 2: 0
    Битовая глубина : 8 бит
    Тип развёртки : Прогрессивная
    Бит/(Пиксели*Кадры) : 0.135
    Размер потока : 1, 07 Гбайт (92%)
    Язык : Russian
    Default : Да
    Forced : Да
    Аудио
    Идентификатор : 2
    Формат : AC-3
    Формат/Информация : Audio Coding 3
    Расширение режима : CM (complete main)
    Параметр Endianness формата : Big
    Идентификатор кодека : A_AC3
    Продолжительность : 49 м.
    Вид битрейта : Постоянный
    Битрейт : 192 Кбит/сек
    Каналы : 2 канала
    Расположение каналов : Front: L R
    Частота : 48, 0 КГц
    Метод сжатия : С потерями
    Размер потока : 67, 6 Мбайт (6%)
    Язык : Russian
    Default : Да
    Forced : Да


    Скриншоты для ознакомления




    Онлайн видео Мажор (2016) WEB-DL [H264



    Мажор (2016) WEB-DL [H264/720p-LQ] (сезон 2, серии 1-6 из 12) (обновляемая)
    загрузка...
    Рейтинг →
     (голосов: 1, оценка 5/5, голосовать можно 1 раз )

    Другие торренты по теме:

  • Мажор (2016) WEB-DL [H.264 / 1080p-LQ] (сезон 2, серии 1-12 из 12)


    • Комментарии (0):

      Информация

      Информация

        Посетители, находящиеся в группе Гости, не могут оставлять комментарии в данной новости.

        ↓ Меню




        ↓ Опрос

        Вы добавили сайт в закладки?
        Да
        Нет


        Top 10 за месяц (Фильмы)