.
Авторизация | Регистрация
Хочешь лучшие торренты? Добавь свой email!
Добавить

Торрент скачать бесплатно

» » Тихоокеанский рубеж / Pacific Rim (2013) 4K UltraHD BDRip [H.265 / 2160p] [Main10] торрент скачать бесплатно




    Тихоокеанский рубеж / Pacific Rim (2013) 4K UltraHD BDRip [H.265 / 2160p] [Main10] торрент скачать бесплатно

    Опубликовал: Админ | Дата: 16-11-2016, 04:00 | Просмотров: 59

    Производство: США, Legendary Pictures
    Жанр: Боевик, Фантастика
    Режиссер: Гильермо дель Торо

    Актеры
    Чарли Ханнэм, Идрис Эльба, Ринко Кикути, Роберт Казински, Макс Мартини, Чарли Дэй, Берн Горман, Клифтон Коллинз мл., Рон Перлман, Диего Клаттенхофф

    Описание

    Когда из морских глубин поднялись легионы чудовищ, известных как Кайдзу, началась война, которой суждено было забрать миллионы жизней и свести человеческие ресурсы почти к нулю всего за несколько лет. Чтобы сражаться с пришельцами, было создано специальное оружие: огромные роботы, названные Джегерами, они управлялись одновременно двумя пилотами, чьи сознания соединены с помощью нейронной связи. Но даже Джегеры оказываются почти бессильны перед лицом безжалостных Кайдзу. На грани поражения у защитников человечества нет выбора, кроме как обратиться к двум весьма сомнительным героям — никому не нужному бывшему пилоту и неопытному стажеру — которые объединились, чтобы повести в бой некогда легендарного, но сейчас устаревшего Джегера. Вместе они оказываются единственной надеждой человечества, последним препятствием перед надвигающимся апокалипсисом.

    Возраст: 12+ (зрителям, достигшим 12 лет)
    Рейтинг MPAA: PG-13 (детям до 13 лет просмотр нежелателен)
    Дата выхода 4K UltraHD Blu-ray релиза: 04.10.2016
    Продолжительность: 02: 11: 33
    Качество видео: 4K UltraHD BDRip H.265/2160p
    Перевод: Дублированный
    Видео: HEVC/H.265, 3840x2160, ~60, 7 mbps, (16: 9), 23, 976 fps
    Аудио 1: AC3, 6 ch, 640 kbps - Дубляж
    Аудио 2: DTS-HD MA, 8 ch, 5460 kbps - Оригинал

    Общее
    Уникальный идентификатор : 208679284049241154076350262074158417925 (0x9CFE2B0EA7C28E22A37E439FC3710805)
    Полное имя : Q: Pacific rim (2160p h265).mkv
    Формат : Matroska
    Версия формата : Version 4/Version 2
    Размер файла : 61, 4 Гбайт
    Продолжительность : 2 ч. Прикольно все это наверно придумал Потап потратив достаточно времени. 11 м.
    Общий поток : 66, 8 Мбит/сек
    Название фильма : Release for
    Дата кодирования : UTC 2016-11-14 13: 09: 52
    Программа кодирования : mkvmerge v9.5.0 (\'Quiet Fire\') 64bit
    Библиотека кодирования : libebml v1.3.4 + libmatroska v1.4.5
    Видео
    Идентификатор : 1
    Формат : HEVC
    Формат/Информация : High Efficiency Video Coding
    Профиль формата : Main10@L6.1@Main
    Идентификатор кодека : V_MPEGH/ISO/HEVC
    Продолжительность : 2 ч. 11 м.
    Битрейт : 60, 7 Мбит/сек
    Ширина : 3840 пикселей
    Высота : 2160 пикселей
    Соотношение сторон : 16: 9
    Режим частоты кадров : Постоянный
    Частота кадров : 23, 976 (24000/1001) кадра/сек
    Цветовое пространство : YUV
    Субдискретизация насыщенности : 4: 2: 0
    Битовая глубина : 10 бит
    Бит/(Пиксели*Кадры) : 0.305
    Размер потока : 55, 8 Гбайт (91%)
    Библиотека кодирования : x265 1.9+3-63308f7658c3: WindowsGCC 5.2.064 bit 10bit
    Настройки программы : wpp/ctu=64/min-cu-size=8/max-tu-size=32/tu-intra-depth=1/tu-inter-depth=1/me=1/subme=2/merange=57/no-rect/no-amp/max-merge=2/temporal-mvp/no-early-skip/rdpenalty=0/no-tskip/no-tskip-fast/strong-intra-smoothing/no-lossless/no-cu-lossless/no-constrained-intra/no-fast-intra/open-gop/no-temporal-layers/interlace=0/keyint=240/min-keyint=24/scenecut=40/rc-lookahead=20/lookahead-slices=8/bframes=4/bframe-bias=0/b-adapt=2/ref=3/limit-refs=3/no-limit-modes/weightp/no-weightb/aq-mode=1/qg-size=32/aq-strength=1.00/cbqpoffs=0/crqpoffs=0/rd=3/psy-rd=2.00/rdoq-level=0/psy-rdoq=0.00/signhide/deblock/sao/no-sao-non-deblock/b-pyramid/cutree/no-intra-refresh/rc=abr/bitrate=61000/qcomp=0.60/qpmin=0/qpmax=51/qpstep=4/ipratio=1.40/pbratio=1.30
    Default : Да
    Forced : Нет
    Цветовой диапазон : Limited
    Основные цвета : BT.709
    Характеристики трансфера : BT.709
    Коэффициенты матрицы : BT.601
    Аудио #1
    Идентификатор : 2
    Формат : AC-3
    Формат/Информация : Audio Coding 3
    Расширение режима : CM (complete main)
    Параметр Endianness формата : Big
    Идентификатор кодека : A_AC3
    Продолжительность : 2 ч. Самое интересное в это истории, что об этом Потап ничего не знал. 11 м.
    Вид битрейта : Постоянный
    Битрейт : 640 Кбит/сек
    Каналы : 6 каналов
    Расположение каналов : Front: L C R, Side: L R, LFE
    Частота : 48, 0 КГц
    Частота кадров : 31, 250 кадров/сек (1536 spf)
    Метод сжатия : С потерями
    Задержка видео : 15 с. О таком странном сюжете не догадывалась даже Верка Сердючка. 979 мс.
    Размер потока : 601 Мбайт (1%)
    Заголовок : Дубляж
    Язык : Russian
    Default : Да
    Forced : Нет
    Аудио #2
    Идентификатор : 3
    Формат : DTS
    Формат/Информация : Digital Theater Systems
    Профиль формата : MA/Core
    Режим : 16
    Параметр Endianness формата : Big
    Идентификатор кодека : A_DTS
    Продолжительность : 2 ч. 11 м.
    Вид битрейта : Переменный/Постоянный
    Битрейт : 5460 Кбит/сек/1509 Кбит/сек
    Каналы : 8 каналов/6 каналов
    Расположение каналов : Front: L C R, Side: L R, Back: L R, LFE/Front: L C R, Side: L R, LFE
    Частота : 48, 0 КГц
    Частота кадров : 93, 750 кадра/сек (512 spf)
    Битовая глубина : 24 бит
    Метод сжатия : Без потерь/Lossy
    Задержка видео : 15 с. 979 мс.
    Размер потока : 5, 01 Гбайт (8%)
    Заголовок : Оригинал
    Язык : English
    Default : Нет
    Forced : Нет


    Скриншоты для ознакомления




    Онлайн видео Тихоокеанский рубеж



    Тихоокеанский рубеж/Pacific Rim (2013) 4K UltraHD BDRip [H.265/2160p] [Main10]
    загрузка...
    Рейтинг →
     (голосов: 1, оценка 4/5, голосовать можно 1 раз )

    Другие торренты по теме:

  • Тихоокеанский рубеж / Pacific Rim (2013) HDRip [H.264]
  • Pacific Rim / Тихоокеанский рубеж 1.9.4 [En] скачать через торрент бесплатно
  • Тихоокеанский рубеж / Pacific Rim (2013) BDRip [H.265 / 1080p-LQ]


    • Комментарии (0):

      Информация

      Информация

        Посетители, находящиеся в группе Гости, не могут оставлять комментарии в данной новости.

        ↓ Меню




        ↓ Опрос

        Вы добавили сайт в закладки?
        Да
        Нет


        Top 10 за месяц (Фильмы)