.
Авторизация | Регистрация
Хочешь лучшие торренты? Добавь свой email!
Добавить

Торрент скачать бесплатно

» » Ведьмовство / The Witching (2016) WEB-DLRip [H.264] [VO] торрент скачать бесплатно




    Ведьмовство / The Witching (2016) WEB-DLRip [H.264] [VO] торрент скачать бесплатно

    Опубликовал: Админ | Дата: 15-11-2016, 04:01 | Просмотров: 54

    Производство: США
    Жанр: Ужасы, Триллер
    Режиссер: Кори Норман

    Актеры
    Джессика Беделл, Ян Карлсен, Джоанна Кларк

    Описание

    Как водится, компашка, как водится, придурков, как водится, скучала, как водится, хотела лайков в интернетах.
    и для заработка оных поперлась делать подкаст в канун хелловина на место мучительного и злобного, и мстительного, и жестокого, и совершенно неканонического убийства местной лесной ведьмы.
    которая была виновата лишь в том, что шёл слух, что она крадет и жрет детей.
    Ну, в общем, нам представили результаты этого живого эфира.

    Дата мировой премьеры: 3 ноября 2016
    Продолжительность: 01: 20: 11
    Качество видео: WEB-DLRip
    Перевод: Одноголосый закадровый, любительский
    Озвучка/Автор перевода: Solod
    Субтитры: Отсутствуют
    Реклама: Отсутствует
    Видео: AVC/H.264, 1024x424, ~2400 kbps
    Аудио: AC3, 2 ch, 256 kbps, CBR

    General
    Unique ID : 181092528995233342961858356911010774531 (0x883D2705A18E0ABDF19F4FDC1C707E03)
    Complete name : the.witching.2016.1024.solod.rus.2.0.mkv
    Format : Matroska
    Format version : Version 4/Version 2
    File size : 1.49 GiB
    Duration : 1 h 20 min
    Overall bit rate : 2 656 kb/s
    Movie name : The Witching | 2016 | Solod
    Released date : 2017
    Encoded date : UTC 2016-11-13 22: 10: 20/UTC 2016-11-12T20: 04: 33Z
    Writing application : mkvmerge v9.5.0 (\'Quiet Fire\') 64bit
    Writing library : libebml v1.3.4 + libmatroska v1.4.5/Lavf55.12.0
    Video
    ID : 1
    Format : AVC
    Format/Info : Advanced Video Codec
    Format profile : High@L4
    Format settings, CABAC : Yes
    Format settings, ReFrames : 10 frames
    Format settings, GOP : M=1, N=4
    Codec ID : V_MPEG4/ISO/AVC
    Duration : 1 h 20 min
    Bit rate : 2 400 kb/s
    Width : 1 024 pixels
    Height : 424 pixels
    Display aspect ratio : 2.40: 1
    Frame rate mode : Constant
    Frame rate : 23.976 (24000/1001) FPS
    Color space : YUV
    Chroma subsampling : 4: 2: 0
    Bit depth : 8 bits
    Scan type : Progressive
    Bits/(Pixel*Frame) : 0.231
    Stream size : 1.31 GiB (88%)
    Writing library : x264 core 148
    Encoding settings : cabac=1/ref=10/deblock=1: -2: -2/analyse=0x3: 0x113/me=umh/subme=11/psy=1/psy_rd=1, 15: 0, 20/mixed_ref=1/me_range=24/chroma_me=1/trellis=2/8x8dct=1/cqm=0/deadzone=21, 11/fast_pskip=1/chroma_qp_offset=-3/threads=6/lookahead_threads=1/sliced_threads=0/nr=0/decimate=1/interlaced=0/bluray_compat=0/constrained_intra=0/bframes=11/b_pyramid=2/b_adapt=1/b_bias=0/direct=1/weightb=1/open_gop=0/weightp=2/keyint=240/keyint_min=24/scenecut=40/intra_refresh=0/rc_lookahead=40/rc=2pass/mbtree=1/bitrate=2400/ratetol=1, 0/qcomp=0, 60/qpmin=0/qpmax=69/qpstep=4/cplxblur=20, 0/qblur=0, 5/vbv_maxrate=62500/vbv_bufsize=78125/nal_hrd=none/filler=0/ip_ratio=1, 40/aq=1: 1, 00
    Default : Yes
    Forced : No
    Color range : Limited
    Color primaries : BT.709
    Transfer characteristics : BT.709
    Matrix coefficients : BT.709
    Statistics Tags Issue : mkvmerge v9.5.0 (\'Quiet Fire\') 64bit 2016-11-13 22: 10: 20/mkvmerge v9.5.0 (\'Quiet Fire\') 64bit 2016-11-13 22: 10: 20/UTC 2016-11-12T20: 04: 33Z
    FromStats_BitRate : 2398515
    FromStats_Duration : 01: 20: 11.140000000
    FromStats_FrameCount : 115352
    FromStats_StreamSize : 1442449330
    Audio
    ID : 2
    Format : AC-3
    Format/Info : Audio Coding 3
    Mode extension : CM (complete main)
    Format settings, Endianness : Big
    Codec ID : A_AC3
    Duration : 1 h 20 min
    Bit rate mode : Constant
    Bit rate : 256 kb/s
    Channel(s) : 2 channels
    Channel positions : Front: L R
    Sampling rate : 48.0 kHz
    Frame rate : 31.250 FPS (1536 spf)
    Compression mode : Lossy
    Delay relative to video : -83 ms
    Stream size : 147 MiB (10%)
    Title : vo solod
    Language : Russian
    Default : Yes
    Forced : No
    Statistics Tags Issue : mkvmerge v9.5.0 (\'Quiet Fire\') 64bit 2016-11-13 22: 10: 20/mkvmerge v9.5.0 (\'Quiet Fire\') 64bit 2016-11-13 22: 10: 20/UTC 2016-11-12T20: 04: 33Z
    FromStats_BitRate : 256000
    FromStats_Duration : 01: 20: 11.200000000
    FromStats_FrameCount : 150350
    FromStats_StreamSize : 153958400
    Menu
    00: 00: 00.000 : : 1
    00: 02: 19.180 : : 2
    00: 11: 18.135 : : 3
    00: 24: 46.109 : : 4
    00: 40: 16.163 : : 5
    00: 52: 50.083 : : 6
    01: 02: 41.090 : : 7
    01: 13: 48.132 : : 8
    01: 16: 16.155 : : 9


    Скриншоты для ознакомления




    Онлайн видео Ведьмовство



    Ведьмовство/The Witching (2016) WEB-DLRip [H.264] [VO]
    загрузка...
    Рейтинг →
     (голосов: 1, оценка 4/5, голосовать можно 1 раз )

    Другие торренты по теме:

  • Ведьмовство / The Witching (2016) AC3 2.0 [Solod]


    • Комментарии (0):

      Информация

      Информация

        Посетители, находящиеся в группе Гости, не могут оставлять комментарии в данной новости.

        ↓ Меню




        ↓ Опрос

        Вы добавили сайт в закладки?
        Да
        Нет


        Top 10 за месяц (Фильмы)