.
Авторизация | Регистрация
Хочешь лучшие торренты? Добавь свой email!
Добавить

Торрент скачать бесплатно

» » СашаТаня (2016) WEB-DLRip (5 сезон: серии 1-2 из 40) (обновляемая) торрент скачать бесплатно




    СашаТаня (2016) WEB-DLRip (5 сезон: серии 1-2 из 40) (обновляемая) торрент скачать бесплатно

    Опубликовал: Админ | Дата: 15-11-2016, 04:01 | Просмотров: 46

    Производство: Россия/Comedy Club Production
    Жанр: комедия
    Режиссер: Михаил Старчак, Сергей Казачанский

    Актеры
    Андрей Гайдулян, Валентина Рубцова, Алексей Климушкин, Елена Бирюкова, Татьяна Орлова, Андрей Лебедев, Ксения Хаирова, Олег Новиков, Сергей Рудзевич, Сергей Мурзин, Андрей Свиридов, Павел Кассинский, Виталий Гогунский, Арарат Кещян, Ёлка, Алексей Гаврилов, Лариса Баранова

    Описание

    Сериал про молодую семью Сергеевых. После окончания института Саша и Таня вместе со своим маленьким сыном Алёшкой решили пожить самостоятельно и сняли квартиру в Южном Бутово. Райончик конечно не из лучших, но зато и цены на жилье тут доступные, ведь Саша не собирается пользоваться миллиардами своего папы. Но Сильвестр Андреевич не собирается так просто отставать от молодых и тем более от своего внука. Поэтому он поселился по соседству, только в просторной и роскошной квартире. Во втором сезон любимого сериалае, Семья Сергеевых съезжает со съемной квартиры, Саша получает долгожданное повышение, Алеша идет в детский сад. Но самые большие изменения произошли в жизни Сильвестра Андреевича…

    Возраст: 16+ (зрителям, достигшим 16 лет)
    Продолжительность: ~ 00: 24: 00 серия
    Качество видео: WEB-DLRip
    Видео: Xvid, 720x400, ~ 1500 Кбит/с
    Аудио: AC3, 2 ch, 192 Кбит/с

    Общее
    Полное имя : D: СЕРИАЛЫСАША ТАНЯSasha.Tanya.2016.WEB-DLRipSasha.Tanya.sO5.eO1.WEB-DLRip.avi
    Формат : AVI
    Формат/Информация : Audio Video Interleave
    Размер файла : 249 Мбайт
    Продолжительность : 21 м.
    Общий поток : 1638 Кбит/сек
    Программа кодирования : VirtualDubMod 1.5.10.2 (build 2540/release)
    Библиотека кодирования : VirtualDubMod build 2540/release
    Видео
    Идентификатор : 0
    Формат : MPEG-4 Visual
    Профиль формата : Advanced Simple@L5
    Параметр BVOP формата : 2
    Параметр QPel формата : Нет
    Параметр GMC формата : Без точки перехода
    Параметр матрицы формата : Default (MPEG)
    Идентификатор кодека : XVID
    Идентификатор кодека/Подсказка : XviD
    Продолжительность : 21 м.
    Битрейт : 1500 Кбит/сек
    Ширина : 720 пикселей
    Высота : 400 пикселей
    Соотношение сторон : 16: 9
    Частота кадров : 25, 000 кадров/сек
    Цветовое пространство : YUV
    Субдискретизация насыщенности : 4: 2: 0
    Битовая глубина : 8 бит
    Тип развёртки : Прогрессивная
    Метод сжатия : С потерями
    Бит/(Пиксели*Кадры) : 0.208
    Размер потока : 228 Мбайт (92%)
    Библиотека кодирования : XviD 1.2.1 (UTC 2008-12-04)
    Аудио
    Идентификатор : 1
    Формат : AC-3
    Формат/Информация : Audio Coding 3
    Расширение режима : CM (complete main)
    Параметр Endianness формата : Big
    Идентификатор кодека : 2000
    Продолжительность : 21 м.
    Вид битрейта : Постоянный
    Битрейт : 128 Кбит/сек
    Каналы : 2 канала
    Расположение каналов : Front: L R
    Частота : 44, 1 КГц
    Частота кадров : 28, 711 кадров/сек (1536 spf)
    Метод сжатия : С потерями
    Размер потока : 19, 5 Мбайт (8%)
    Выравнивание : Разделение по промежуткам
    Продолжительность промежутка : 40 мс. (1, 00 видеокадр)
    Время предзагрузки промежутка : 500 мс.


    Скриншоты для ознакомления




    Онлайн видео СашаТаня (2016) WEB



    СашаТаня (2016) WEB-DLRip (5 сезон: серии 1-2 из 40) (обновляемая)
    загрузка...
    Рейтинг →
     (голосов: 1, оценка 3/5, голосовать можно 1 раз )

    Другие торренты по теме:

  • СашаТаня. Новогодняя серия (2016.12.28) WEB-DLRip
  • СашаТаня (2015) WEB-DLRip [H.264 / 720p-LQ] (сезон 2, серии 1- из 20) (обновляемая) скачать через торрент бесплатно
  • СашаТаня (2015) WEB-DLRip (сезон 2, серии 1- из 20) (обновляемая) скачать через торрент бесплатно
  • СашаТаня (2015) WEB-DLRip (сезон 3, серии 1-4 из 16) (обновляемая) скачать через торрент бесплатно
  • СашаТаня (2015) WEB-DLRip [H.264] (сезон 3, серии 1-4 из 16) (обновляемая) скачать через торрент бесплатно
  • СашаТаня (2015) WEB-DLRip [H.264 / 720p-LQ] (сезон 3, серии 1-4 из 16) (обновляемая) скачать через торрент бесплатно
  • СашаТаня (2015) WEB-DLRip [H.264] (сезон 4, серии 1-2 из ) (обновляемая) скачать через торрент бесплатно
  • СашаТаня (2015) WEB-DLRip (сезон 4, серии 1-4 из ) (обновляемая) скачать через торрент бесплатно


    • Комментарии (0):

      Информация

      Информация

        Посетители, находящиеся в группе Гости, не могут оставлять комментарии в данной новости.

        ↓ Меню




        ↓ Опрос

        Вы добавили сайт в закладки?
        Да
        Нет


        Top 10 за месяц (Фильмы)