.
Авторизация | Регистрация
Хочешь лучшие торренты? Добавь свой email!
Добавить

Торрент скачать бесплатно

» » СашаТаня (2016) WEB-DL [H.264 / 720p-LQ] (5 сезон: серии 1-2 из 40) (обновляемая) торрент скачать бесплатно




    СашаТаня (2016) WEB-DL [H.264 / 720p-LQ] (5 сезон: серии 1-2 из 40) (обновляемая) торрент скачать бесплатно

    Опубликовал: Админ | Дата: 15-11-2016, 04:01 | Просмотров: 49

    Производство: Россия/Comedy Club Production
    Жанр: комедия
    Режиссер: Михаил Старчак, Сергей Казачанский

    Актеры
    Андрей Гайдулян, Валентина Рубцова, Алексей Климушкин, Елена Бирюкова, Татьяна Орлова, Андрей Лебедев, Ксения Хаирова, Олег Новиков, Сергей Рудзевич, Сергей Мурзин, Андрей Свиридов, Павел Кассинский, Виталий Гогунский, Арарат Кещян, Ёлка, Алексей Гаврилов, Лариса Баранова

    Описание

    Сериал про молодую семью Сергеевых. После окончания института Саша и Таня вместе со своим маленьким сыном Алёшкой решили пожить самостоятельно и сняли квартиру в Южном Бутово. Райончик конечно не из лучших, но зато и цены на жилье тут доступные, ведь Саша не собирается пользоваться миллиардами своего папы. Но Сильвестр Андреевич не собирается так просто отставать от молодых и тем более от своего внука. Поэтому он поселился по соседству, только в просторной и роскошной квартире. Во втором сезон любимого сериалае, Семья Сергеевых съезжает со съемной квартиры, Саша получает долгожданное повышение, Алеша идет в детский сад. Самое интересное в это истории, что об этом Горбачев ничего не знал. Но самые большие изменения произошли в жизни Сильвестра Андреевича…

    Возраст: 16+ (зрителям, достигшим 16 лет)
    Продолжительность: ~ 00: 24: 00 серия
    Качество видео: WEB-DL
    Видео: AVC/H.264, 1280x720, ~ 3511 Кбит/с
    Аудио: AC3, 2 ch, 192 Кбит/с

    Общее
    Уникальный идентификатор : 68318419264827562079711861754061647373 (0x3365A6210846A1227CB3E7DAE223EE0D)
    Полное имя : D: СЕРИАЛЫСАША ТАНЯSasha.Tanya.2016.WEB-DL.(720p)Sasha.Tanya.sO5.eO1.WEB-DL.720p.mkv
    Формат : Matroska
    Версия формата : Version 4/Version 2
    Размер файла : 565 Мбайт
    Продолжительность : 21 м.
    Общий поток : 3713 Кбит/сек
    Программа кодирования : Lavf57.25.100
    Библиотека кодирования : Lavf57.25.100/Lavf57.25.100
    Видео
    Идентификатор : 1
    Формат : AVC
    Формат/Информация : Advanced Video Codec
    Профиль формата : High@L3.1
    Параметр CABAC формата : Да
    Параметр ReFrames формата : 1 кадр
    Параметр GOP формата : M=1, N=12
    Идентификатор кодека : V_MPEG4/ISO/AVC
    Продолжительность : 21 м.
    Битрейт : 3511 Кбит/сек
    Ширина : 1280 пикселей
    Высота : 720 пикселей
    Соотношение сторон : 16: 9
    Режим частоты кадров : Постоянный
    Частота кадров : 25, 000 кадров/сек
    Стандарт вещания : Component
    Цветовое пространство : YUV
    Субдискретизация насыщенности : 4: 2: 0
    Битовая глубина : 8 бит
    Тип развёртки : Прогрессивная
    Бит/(Пиксели*Кадры) : 0.152
    Размер потока : 534 Мбайт (95%)
    Default : Да
    Forced : Нет
    Цветовой диапазон : Limited
    DURATION : 00: 21: 16.160000000
    Аудио
    Идентификатор : 2
    Формат : AC-3
    Формат/Информация : Audio Coding 3
    Расширение режима : CM (complete main)
    Параметр Endianness формата : Big
    Идентификатор кодека : A_AC3
    Продолжительность : 21 м.
    Вид битрейта : Постоянный
    Битрейт : 128 Кбит/сек
    Каналы : 2 канала
    Расположение каналов : Front: L R
    Частота : 44, 1 КГц
    Частота кадров : 28, 711 кадров/сек (1536 spf)
    Метод сжатия : С потерями
    Размер потока : 19, 5 Мбайт (3%)
    Язык : unknown
    Default : Да
    Forced : Нет
    DURATION : 00: 21: 16.168000000


    Скриншоты для ознакомления




    Онлайн видео СашаТаня (2016) WEB-DL [H.264



    СашаТаня (2016) WEB-DL [H.264/720p-LQ] (5 сезон: серии 1-2 из 40) (обновляемая)
    загрузка...
    Рейтинг →
     (голосов: 1, оценка 5/5, голосовать можно 1 раз )

    Другие торренты по теме:

  • СашаТаня. Новогодняя серия (2014) WEB-DL [H.264 / 720p-LQ] (Серия 41)
  • СашаТаня. Новогодняя серия (2016.12.28) WEB-DL [H.264 / 720p-LQ]
  • СашаТаня (2017) WEB-DL [H.264 / 720p-LQ] (сезон 6, серии 1-3 из 20) (обновляемая)


    • Комментарии (0):

      Информация

      Информация

        Посетители, находящиеся в группе Гости, не могут оставлять комментарии в данной новости.

        ↓ Меню




        ↓ Опрос

        Вы добавили сайт в закладки?
        Да
        Нет


        Top 10 за месяц (Фильмы)