.
Авторизация | Регистрация
Хочешь лучшие торренты? Добавь свой email!
Добавить

Торрент скачать бесплатно

» » Мажор (2016) (2 сезон, серии 1-2 из 12) HDTV [H.264 / 1080i] (обновляемая) торрент скачать бесплатно




    Мажор (2016) (2 сезон, серии 1-2 из 12) HDTV [H.264 / 1080i] (обновляемая) торрент скачать бесплатно

    Опубликовал: Админ | Дата: 15-11-2016, 04:01 | Просмотров: 91

    Производство: Россия
    Жанр: Драма, Криминал
    Режиссер: Николай Булыгин, Максим Полинский

    Актеры
    Павел Прилучный, Дмитрий Шевченко, Карина Разумовская, Александр Обласов, Денис Шведов, Любовь Аксенова, Олеся Ерикова, Леонид Паранин, Екатерина Рузанова, Юрий Уткин.

    Описание

    Неожиданно для всех Игоря Соколовского выпускают из СИЗО, сняв все обвинения в покушении на жизнь бизнесмена Игнатьева. Но Мажор выходит с одним-единственным желанием — отомстить, так как он считает Игнатьева виновным в смерти отца и матери. Соколовский возвращается на службу в полицию, возглавляет бизнес отца, который перешел ему по наследству, заводит красивый и яркий роман с Катей. Мучается из-за отношений с Викой — они так и не смогли забыть друг друга. И день за днем торопит развязку — уничтожение Игнатьева. Но что будет после того, как цель достигнута? После того, как придется посмотреть на победу с другой стороны…

    Возраст: 16+ (зрителям, достигшим 16 лет)
    Дата российской премьеры: 14 ноября 2016
    Продолжительность: ~00: 50: 00 серия
    Качество видео: HDTV 1080i
    Видео: AVC/H.264, 1920x1080, 25.000 fps, ~6624 Kbps
    Аудио 1: AC3, 6 ch, 384 Kbps, CBR
    Аудио 2: MP2, 2 ch, 192 Kbps, CBR
    YouTube

    Общее
    Идентификатор : 1 (0x1)
    Полное имя : D: ФильмыМои раздачиМажор 2Мажор. 2 сезон любимого сериала.HDTV1080Mazhor.s2.01.HDTV1080.ts
    Формат : MPEG-TS
    Размер файла : 2, 57 Гбайт
    Продолжительность : 48 м.
    Режим общего битрейта : Переменный
    Общий поток : 7580 Кбит/сек
    Видео
    Идентификатор : 1904 (0x770)
    Идентификатор меню : 904 (0x388)
    Формат : AVC
    Формат/Информация : Advanced Video Codec
    Профиль формата : High@L4.0
    Параметр CABAC формата : Да
    Параметр ReFrames формата : 3 кадра
    Параметр GOP формата : M=4, N=32
    Идентификатор кодека : 27
    Продолжительность : 48 м.
    Битрейт : 6624 Кбит/сек
    Ширина : 1920 пикселей
    Высота : 1080 пикселей
    Соотношение сторон : 16: 9
    Частота кадров : 25, 000 кадров/сек
    Стандарт вещания : Component
    Цветовое пространство : YUV
    Субдискретизация насыщенности : 4: 2: 0
    Битовая глубина : 8 бит
    Тип развёртки : Чересстрочная
    Порядок развёртки : Верхнее поле первое
    Бит/(Пиксели*Кадры) : 0.128
    Размер потока : 2, 24 Гбайт (87%)
    Основные цвета : BT.709
    Характеристики трансфера : BT.709
    Коэффициенты матрицы : BT.709
    Аудио #1
    Идентификатор : 2904 (0xB58)
    Идентификатор меню : 904 (0x388)
    Формат : AC-3
    Формат/Информация : Audio Coding 3
    Расширение режима : CM (complete main)
    Параметр Endianness формата : Big
    Идентификатор кодека : 6
    Продолжительность : 48 м.
    Вид битрейта : Постоянный
    Битрейт : 384 Кбит/сек
    Каналы : 6 каналов
    Расположение каналов : Front: L C R, Side: L R, LFE
    Частота : 48, 0 КГц
    Битовая глубина : 16 бит
    Метод сжатия : С потерями
    Размер потока : 133 Мбайт (5%)
    Язык : Russian
    Аудио #2
    Идентификатор : 2905 (0xB59)
    Идентификатор меню : 904 (0x388)
    Формат : MPEG Audio
    Версия формата : Version 1
    Профиль формата : Layer 2
    Идентификатор кодека : 3
    Продолжительность : 48 м.
    Вид битрейта : Постоянный
    Битрейт : 192 Кбит/сек
    Каналы : 2 канала
    Частота : 48, 0 КГц
    Метод сжатия : С потерями
    Размер потока : 66, 5 Мбайт (3%)
    Язык : Russian


    Скриншоты для ознакомления




    Онлайн видео Мажор (2016) (2 сезон любимого сериала, серии 1-2 из 12) HDTV [H.264



    Мажор (2016) (2 сезон, серии 1-2 из 12) HDTV [H.264/1080i] (обновляемая)
    загрузка...
    Рейтинг →
     (голосов: 1, оценка 4/5, голосовать можно 1 раз )

    Другие торренты по теме:

  • Мажор (2016) SATRip (сезон 2, серии 1-2 из 12) (обновляемая)
  • Мажор (2016) HDTVRip (сезон 2, серии 1-2 из 12) (обновляемая)
  • Мажор (2016) WEB-DL [H264 / 720p-LQ] (сезон 2, серии 1-6 из 12) (обновляемая)
  • Мажор (2016) SATRip [H.264] (сезон 2, серии 1-4 из 12) (Обновляемая)
  • Мажор (2016) WEB-DLRip [H.264] (сезон 2, серии 1-10 из 12) (обновляемая)
  • Мажор (2016) WEBRip (сезон 2, серий 1-12 из 12)
  • Мажор (2016) WEB-DL [H.264 / 1080p-LQ] (сезон 2, серии 1-12 из 12)


    • Комментарии (0):

      Информация

      Информация

        Посетители, находящиеся в группе Гости, не могут оставлять комментарии в данной новости.

        ↓ Меню




        ↓ Опрос

        Вы добавили сайт в закладки?
        Да
        Нет


        Top 10 за месяц (Фильмы)