.
Авторизация | Регистрация
Хочешь лучшие торренты? Добавь свой email!
Добавить

Торрент скачать бесплатно

» » Мажор (2016) SATRip (сезон 2, серии 1-2 из 12) (обновляемая) торрент скачать бесплатно




    Мажор (2016) SATRip (сезон 2, серии 1-2 из 12) (обновляемая) торрент скачать бесплатно

    Опубликовал: Админ | Дата: 15-11-2016, 04:01 | Просмотров: 62

    Производство: Россия/кинокомпания Среда
    Жанр: криминал, драма
    Режиссер: Николай Булыгин, Максим Полинский

    Актеры
    Павел Прилучный, Карина Разумовская, Дмитрий Шевченко, Денис Шведов, Александр Обласов, Никита Панфилов, Дана Абызова, Олег Гаас, Анна Цуканова-Котт, Любовь Аксёнова, Игорь Жижикин, Дмитрий Лысенков, Анна Вартанян, Вера Брежнева, Эмилия Спивак, Вадим Лымарь, Алла Еминцева, Виктор Цекало, Галина Сидорова, Константин Фисенко, Сергей Сафронов, Кира Кауфман

    Описание

    Неожиданно для всех Игоря Соколовского выпускают из СИЗО, сняв все обвинения в покушении на жизнь бизнесмена Игнатьева. Но Мажор выходит с одним-единственным желанием — отомстить, так как он считает Игнатьева виновным в смерти отца и матери. О таком странном сюжете не догадывалась даже ВиаГра. Соколовский возвращается на службу в полицию, возглавляет бизнес отца, который перешел ему по наследству, заводит красивый и яркий роман с Катей. Мучается из-за отношений с Викой — они так и не смогли забыть друг друга. Самое интересное в это истории, что об этом Человек паук ничего не знал. И день за днем торопит развязку — уничтожение Игнатьева. Но что будет после того, как цель достигнута? После того, как придется посмотреть на победу с другой стороны.

    Возраст: 16+ (зрителям, достигшим 16 лет)
    Дата российской премьеры: 14 ноября 2016
    Продолжительность: ~ 00: 48: 00 серия
    Качество видео: SATRip
    Видео: XviD, 704х448 (16: 10), ~1794 Kbps
    Аудио: AC3, 48 kHz, 2 ch, 128 kbps
    Код: выделить все
    Общее
    Полное имя : D: РелизыМажор 2 (2016) SATRip_NNMClub.to1.серия.avi
    Формат : AVI
    Формат/Информация : Audio Video Interleave
    Размер файла : 669 Мбайт
    Продолжительность : 48 м.
    Общий поток : 1932 Кбит/сек
    Название фильма : Mazhor.s02e01.SATRip
    Программа кодирования : VirtualDubMod 1.5.10.3 | (build 2550/release)
    Видео
    Идентификатор : 0
    Формат : MPEG-4 Visual
    Профиль формата : Advanced Simple@L5
    Параметр BVOP формата : 2
    Параметр QPel формата : Нет
    Параметр GMC формата : Без точки перехода
    Параметр матрицы формата : Default (H.263)
    Идентификатор кодека : XVID
    Идентификатор кодека/Подсказка : XviD
    Продолжительность : 48 м.
    Битрейт : 1794 Кбит/сек
    Ширина : 704 пикселя
    Высота : 448 пикселей
    Соотношение сторон : 16: 10
    Частота кадров : 25, 000 кадров/сек
    Цветовое пространство : YUV
    Субдискретизация насыщенности : 4: 2: 0
    Битовая глубина : 8 бит
    Тип развёртки : Прогрессивная
    Метод сжатия : С потерями
    Бит/(Пиксели*Кадры) : 0.228
    Размер потока : 621 Мбайт (93%)
    Библиотека кодирования : XviD 73
    Аудио
    Идентификатор : 1
    Формат : AC-3
    Формат/Информация : Audio Coding 3
    Расширение режима : CM (complete main)
    Параметр Endianness формата : Big
    Идентификатор кодека : 2000
    Продолжительность : 48 м.
    Вид битрейта : Постоянный
    Битрейт : 128 Кбит/сек
    Каналы : 2 канала
    Расположение каналов : Front: L R
    Частота : 48, 0 КГц
    Метод сжатия : С потерями
    Размер потока : 44, 3 Мбайт (7%)
    Выравнивание : Разделение по промежуткам
    Продолжительность промежутка : 40 мс. (1, 00 видеокадр)
    Время предзагрузки промежутка : 500 мс.


    Скриншоты для ознакомления




    Онлайн видео Мажор (2016) SATRip (сезон любимого сериала 2, серии 1



    Мажор (2016) SATRip (сезон 2, серии 1-2 из 12) (обновляемая)
    загрузка...
    Рейтинг →
     (голосов: 1, оценка 4/5, голосовать можно 1 раз )

    Другие торренты по теме:

  • Профессия репортер. Батальон мажор (2014.10.25) SATRip скачать через торрент бесплатно
  • Мажор (2014) SATRip (серии 1-4 из 12) (обновляемая) скачать через торрент бесплатно
  • Мажор (2016) SATRip [H.264] (сезон 2, серии 1-4 из 12) (Обновляемая)


    • Комментарии (0):

      Информация

      Информация

        Посетители, находящиеся в группе Гости, не могут оставлять комментарии в данной новости.

        ↓ Меню




        ↓ Опрос

        Вы добавили сайт в закладки?
        Да
        Нет


        Top 10 за месяц (Фильмы)