.
Авторизация | Регистрация
Хочешь лучшие торренты? Добавь свой email!
Добавить

Торрент скачать бесплатно

» » Граница / Рубеж / Frontier (2016) HDTV [H.264 / 720p-LQ] (сезон 1, серия 1 из 6) NewStudio (обновляемая) торрент скачать бесплатно




    Граница / Рубеж / Frontier (2016) HDTV [H.264 / 720p-LQ] (сезон 1, серия 1 из 6) NewStudio (обновляемая) торрент скачать бесплатно

    Опубликовал: Админ | Дата: 15-11-2016, 04:01 | Просмотров: 54

    Производство: Канада, Take the Shot Productions
    Жанр: приключения
    Режиссер: Брэд Пейтон, Джон Ватчер, Келли Макин

    Актеры
    Джейсон Момоа, Лэндон Либуарон, Зои Бойл, Кристиан МакКэй, Эван Йоникит, Занн МаКларнон, Лайла Портер-Фоллоус, Грег Брайк, Бриэнн Хилл, Джессика Маттен и др.

    Описание

    Сериал расскажет о жестокой и кровавой борьбе за богатство и власть в торговле пушниной на просторах Северной Америки в XVIII веке. О таком странном сюжете не догадывалась даже Волочкова. Бизнес приходится вести в очень сложных условиях жестокого противостояния коренных племён и понаехавших на континент европейцев.

    Дата мировой премьеры: 6 ноября 2016
    Продолжительность: ~ 00: 45: 00 серия
    Качество видео: HDTV
    Перевод: Профессиональный многоголосый закадровый -NewStudio
    Автор перевода: Александра Цернант
    Видео: AVC/H.264, 1280x638, ~2675 Kbps
    Аудио Rus: AC3, 384 kbps, 6 ch, 48 kHz
    Аудио Eng: AC3, 384 kbps, 6 ch, 48 kHz
    Общее
    Frontier - Рубеж. Сезон 1. Самое интересное в это истории, что об этом Китай ничего не знал. NewStudio. 720pFrontier.2016.s01e01.HDTV.720p.NewStudio.mkv
    Формат : Matroska
    Версия формата : Version 4/Version 2
    Размер файла : 1, 12 Гбайт
    Продолжительность : 45 м.
    Общий поток : 3513 Кбит/сек
    Название фильма : Frontier s01e01 @ NNM-Club
    Дата кодирования : UTC 2016-11-14 12: 06: 57
    Программа кодирования : mkvmerge v6.9.1 (\'Blue Panther\') 64bit built on Apr 18 2014 18: 23: 38
    Библиотека кодирования : libebml v1.3.0 + libmatroska v1.4.1
    Видео
    Идентификатор : 1
    Формат : AVC
    Формат/Информация : Advanced Video Codec
    Профиль формата : High@L4.1
    Параметр CABAC формата : Да
    Параметр ReFrames формата : 5 кадров
    Идентификатор кодека : V_MPEG4/ISO/AVC
    Продолжительность : 45 м.
    Битрейт : 2675 Кбит/сек
    Ширина : 1280 пикселей
    Высота : 638 пикселей
    Соотношение сторон : 2, 006
    Режим частоты кадров : Постоянный
    Частота кадров : 23, 976 кадра/сек
    Цветовое пространство : YUV
    Субдискретизация насыщенности : 4: 2: 0
    Битовая глубина : 8 бит
    Тип развёртки : Прогрессивная
    Бит/(Пиксели*Кадры) : 0.137
    Размер потока : 873 Мбайт (76%)
    Библиотека кодирования : x264 core 148 r2721 72d53ab
    Настройки программы : cabac=1/ref=5/deblock=1: 0: 0/analyse=0x3: 0x113/me=hex/subme=8/psy=1/psy_rd=1.00: 0.00/mixed_ref=1/me_range=16/chroma_me=1/trellis=2/8x8dct=1/cqm=0/deadzone=21, 11/fast_pskip=1/chroma_qp_offset=-2/threads=20/lookahead_threads=3/sliced_threads=0/nr=0/decimate=1/interlaced=0/bluray_compat=0/constrained_intra=0/bframes=3/b_pyramid=2/b_adapt=1/b_bias=0/direct=3/weightb=1/open_gop=0/weightp=2/keyint=250/keyint_min=23/scenecut=40/intra_refresh=0/rc_lookahead=50/rc=crf/mbtree=1/crf=18.0/qcomp=0.60/qpmin=0/qpmax=69/qpstep=4/ip_ratio=1.40/aq=1: 1.00
    Язык : English
    Default : Да
    Forced : Нет
    Коэффициенты матрицы : BT.709
    colour_range : Limited
    Аудио #1
    Идентификатор : 2
    Формат : AC-3
    Формат/Информация : Audio Coding 3
    Расширение режима : CM (complete main)
    Параметр Endianness формата : Big
    Идентификатор кодека : A_AC3
    Продолжительность : 45 м.
    Вид битрейта : Постоянный
    Битрейт : 384 Кбит/сек
    Каналы : 6 каналов
    Расположение каналов : Front: L C R, Side: L R, LFE
    Частота : 48, 0 КГц
    Битовая глубина : 16 бит
    Метод сжатия : С потерями
    Размер потока : 125 Мбайт (11%)
    Язык : Russian
    Default : Да
    Forced : Нет
    Аудио #2
    Идентификатор : 3
    Формат : AC-3
    Формат/Информация : Audio Coding 3
    Расширение режима : CM (complete main)
    Параметр Endianness формата : Big
    Идентификатор кодека : A_AC3
    Продолжительность : 45 м.
    Вид битрейта : Постоянный
    Битрейт : 384 Кбит/сек
    Каналы : 6 каналов
    Расположение каналов : Front: L C R, Side: L R, LFE
    Частота : 48, 0 КГц
    Битовая глубина : 16 бит
    Метод сжатия : С потерями
    Размер потока : 125 Мбайт (11%)
    Язык : English
    Default : Нет
    Forced : Нет
    Текст
    Идентификатор : 4
    Формат : ASS
    Идентификатор кодека : S_TEXT/ASS
    Идентификатор кодека/Информация : Advanced Sub Station Alpha
    Метод сжатия : Без потерь
    Язык : Russian
    Default : Да
    Forced : Да


    Скриншоты для ознакомления




    Онлайн видео Граница



    Граница/Рубеж/Frontier (2016) HDTV [H.264/720p-LQ] (сезон 1, серия 1 из 6) NewStudio (обновляемая)
    загрузка...
    Рейтинг →
     (голосов: 1, оценка 3/5, голосовать можно 1 раз )

    Другие торренты по теме:

  • Граница / Рубеж / Frontier (2017) HDTV [H.264 / 720p-LQ] (сезон 2, серии 1 из 6) NewStudio (обновляемая)


    • Комментарии (0):

      Информация

      Информация

        Посетители, находящиеся в группе Гости, не могут оставлять комментарии в данной новости.

        ↓ Меню




        ↓ Опрос

        Вы добавили сайт в закладки?
        Да
        Нет


        Top 10 за месяц (Фильмы)