.
Авторизация | Регистрация
Хочешь лучшие торренты? Добавь свой email!
Добавить

Торрент скачать бесплатно

» » Мир Дикого запада / Западный мир / Westworld (2016) WEB-DLRip [H.264 / 720p-LQ] (сезон 1, серии 1-6 из 10) Jaskier (обновляемая) торрент скачать бесплатно




    Мир Дикого запада / Западный мир / Westworld (2016) WEB-DLRip [H.264 / 720p-LQ] (сезон 1, серии 1-6 из 10) Jaskier (обновляемая) торрент скачать бесплатно

    Опубликовал: Админ | Дата: 15-11-2016, 04:01 | Просмотров: 97

    Производство: США/Bad Robot, Jerry Weintraub Productions, Kilter Films, Warner Bros. Television
    Жанр: фантастика, драма, вестерн
    Режиссер: Джонатан Нолан, Джонни Кэмпбелл, Ричард Дж. Льюис

    Актеры
    Эван Рэйчел Вуд, Тэнди Ньютон, Джеффри Райт, Джеймс Марсден, Бен Барнс, Ингрид Бульсё Бердал, Клифтон Коллинз-мл., Люк Хемсворт, Сидсе Бабетт Кнудсен, Саймон Куортерман и др.

    Описание

    Сюжет рассказывает о недалёком будущем, в котором громадную популярность у публики завоевали роботизированные тематические парки отдыха и развлечений. При помощи современнейших технологий они имитируют популярные исторические периоды. Посетители выбирают любимую эпоху и принимают активное участие в аттракционе. Статистами в парках служат андроиды, почти неотличимые от живых людей. Благодатная почва, сказал кто то из толпы, к чему не понятно. Но техника — вещь капризная. Однажды в компьютерной системе происходит сбой, и роботы начинают убивать посетителей.

    Дата мировой премьеры: 2 октября 2016
    Дата премьеры в России: 3 октября 2016

    Продолжительность: ~ 01: 10: 00 серия
    Качество видео: WEB-DLRip
    Перевод: Многоголосый закадровый, профессиональный -Jaskier
    Внимание! Присутствует ненормативная лексика и сцены с обнажённой натурой.

    Видео: AVC/H.264, 1280x720 (16: 9), ~2807 kbps
    Аудио Rus: AC3, 384 kbps, 6 ch, 48, 0 kHz - многоголосый закадровый
    Аудио Eng: AC3, 384 kbps, 6 ch, 48, 0 kHz - оригинал
    Код: выделить все
    General
    Unique ID : 222708448517498530139872276254887906982 (0xA78C1644C41EDCC187F99C9063260EA6)
    Complete name : Westworld [S01] [Jaskier]Westworld.S01E01.The.Original.720p.WEB-DL.DD5.1.H.264-Jaskier.mkv
    Format : Matroska
    Format version : Version 4/Version 2
    File size : 1.79 GiB
    Duration : 1 h 11 min
    Overall bit rate mode : Variable
    Overall bit rate : 3 578 kb/s
    Encoded date : UTC 2016-11-13 13:36:11
    Writing application : mkvmerge v9.5.0 (\'Quiet Fire\') 64bit
    Writing library : libebml v1.3.4 + libmatroska v1.4.5
    Video
    ID : 1
    Format : AVC
    Format/Info : Advanced Video Codec
    Format profile :Main@L3.2
    Format settings, CABAC : Yes
    Format settings, ReFrames : 4 frames
    Codec ID : V_MPEG4/ISO/AVC
    Duration : 1 h 11 min
    Bit rate mode : Variable
    Bit rate : 2 807 kb/s
    Maximum bit rate : 3 510 kb/s
    Width : 1 280 pixels
    Height : 720 pixels
    Display aspect ratio : 16:9
    Frame rate mode : Constant
    Frame rate : 23.976 (24000/1001) FPS
    Color space : YUV
    Chroma subsampling : 4:2:0
    Bit depth : 8 bits
    Scan type : Progressive
    Bits/(Pixel*Frame) : 0.127
    Stream size : 1.40 GiB (78%)
    Language : English
    Default : Yes
    Forced : No
    Audio #1
    ID : 2
    Format : AC-3
    Format/Info : Audio Coding 3
    Mode extension : CM (complete main)
    Format settings, Endianness : Big
    Codec ID : A_AC3
    Duration : 1 h 11 min
    Bit rate mode : Constant
    Bit rate : 384 kb/s
    Channel(s) : 6 channels
    Channel positions : Front: L C R, Side: L R, LFE
    Sampling rate : 48.0 kHz
    Frame rate : 31.250 FPS (1536 spf)
    Bit depth : 16 bits
    Compression mode : Lossy
    Stream size : 196 MiB (11%)
    Language : Russian
    Default : Yes
    Forced : No
    Audio #2
    ID : 3
    Format : AC-3
    Format/Info : Audio Coding 3
    Mode extension : CM (complete main)
    Format settings, Endianness : Big
    Codec ID : A_AC3
    Duration : 1 h 11 min
    Bit rate mode : Constant
    Bit rate : 384 kb/s
    Channel(s) : 6 channels
    Channel positions : Front: L C R, Side: L R, LFE
    Sampling rate : 48.0 kHz
    Frame rate : 31.250 FPS (1536 spf)
    Bit depth : 16 bits
    Compression mode : Lossy
    Delay relative to video : 29 ms
    Stream size : 196 MiB (11%)
    Language : English
    Default : No
    Forced : No


    Скриншоты для ознакомления




    Онлайн видео Мир Дикого запада



    Мир Дикого запада/Западный мир/Westworld (2016) WEB-DLRip [H.264/720p-LQ] (сезон 1, серии 1-6 из 10) Jaskier (обновляемая)
    загрузка...
    Рейтинг →
     (голосов: 1, оценка 5/5, голосовать можно 1 раз )

    Другие торренты по теме:

  • Six-Guns [3D] 2.9.0h - Исследуйте безграничные просторы Дикого Запада [Ru] скачать через торрент бесплатно
  • Западный мир / Мир Дикого Запада / Westworld (1973) BDRip [H.264 / 720p-LQ] скачать через торрент бесплатно
  • Мир Дикого запада / Западный мир / Westworld (2016) WEB-DLRip (сезон 1, серии 1 из 10) NewStudio (обновляемая)
  • Мир Дикого запада / Западный мир / Westworld (2016) HDTV [H.264 / 1080p-LQ] (сезон 1, серия 1 из 10) Кравец (обновляемая)
  • Мир Дикого запада / Западный мир / Westworld (2016) HDTVRip [H.264 / 720p-LQ] (сезон 1, серия 1 из 10) Кравец (обновляемая)
  • Мир Дикого запада / Западный мир / Westworld (2016) HDTVrip (сезон 1, серии 1 из 10) OMSKBIRD (обновляемая)
  • Мир Дикого запада / Западный мир / Westworld (2016) HDTVrip [H.264 / 720p-LQ] (сезон 1, серии 1 из 10) OMSKBIRD (обновляемая)
  • Мир Дикого запада / Западный мир / Westworld (2016) HDTVRip (сезон 1, серии 1 из 10) Кравец (обновляемая)


    • Комментарии (0):

      Информация

      Информация

        Посетители, находящиеся в группе Гости, не могут оставлять комментарии в данной новости.

        ↓ Меню




        ↓ Опрос

        Вы добавили сайт в закладки?
        Да
        Нет


        Top 10 за месяц (Фильмы)