.
Авторизация | Регистрация
Хочешь лучшие торренты? Добавь свой email!
Добавить

Торрент скачать бесплатно

» » Алиса в Зазеркалье / Alice Through the Looking Glass (2016) DVD9 [BD -> DVD] торрент скачать бесплатно




    Алиса в Зазеркалье / Alice Through the Looking Glass (2016) DVD9 [BD -> DVD] торрент скачать бесплатно

    Опубликовал: Админ | Дата: 12-11-2016, 04:00 | Просмотров: 59

    Производство: США, Великобритания/Walt Disney Pictures
    Жанр: Фэнтези, приключения, семейный
    Режиссер: Джеймс Бобин
    Продюсеры: Тим Бёртон, Джо Рот, Дженнифер Тодд

    Актеры
    Миа Васиковска, Джонни Депп, Хелена Бонем Картер, Энн Хэтэуэй, Саша Барон Коэн, Рис Иванс, Мэтт Лукас, Линдси Дункан, Лео Билл, Джеральдин Джеймс

    Описание

    Победив огнедышащего дракона Бармаглота и свергнув с трона Красную Королеву, Алиса возвращается в свой родной мир. Три года она плавает по китайским морям в звании капитана корабля Чудо, перевозя торговые грузы и занимаясь делами компании своего покойного отца, Чарльза Кингсли. Но вскоре ей предстоит вновь с головой окунуться в водоворот захватывающих приключений и ярких красок дневного свечения, опередив само время, чтобы спасти своего лучшего друга, Сумасшедшего Шляпника.

    Возраст: 12+ (зрителям, достигшим 12 лет)
    Рейтинг MPAA: PG (рекомендуется присутствие родителей)
    Дата мировой премьеры: 10 мая 2016
    Дата российской премьеры: 26 мая 2016, WDSSPR
    Дата выхода DVD/Blu-ray релиза: 26 августа 2016, Уолт Дисней Компани СНГ

    Продолжительность: 01: 52: 51
    Качество видео: DVD9 BD - DVD
    Перевод: Дублированный
    Субтитры: Вшитые отключаемые
    Язык субтитров: Русский, английский
    Доп. Большая шишка, сказал кто то из толпы, к чему не понятно. материалы: Отсутствуют
    Видео: MPEG-2, 720x480@853x480 (NTSC 16: 9), ~8700 Kbps
    Аудио 1: AC3 5.1, 448 Kbps (Русский - дублированный)
    Аудио 2: AC3 5.1, 448 Kbps (Английский - оригинал)
    Код: выделить все
    Title: Alice Through the Looking Glass (2016) DVD9 [BD-DVD]
    Size: 7.83 Gb ( 8 212 512, 00 KBytes ) - DVD-9
    Enabled regions: 1, 2, 3, 4, 5, 6, 7, 8
    VTS_01 :
    Play Length: 01:52:51
    Video: NTSC 16:9 (720x480) VBR, Auto Letterboxed
    Audio:
    Russian (Dolby AC3, 6 ch)
    English (Dolby AC3, 6 ch)
    Subtitles:
    Russian
    English
    * Menus Information *
    VIDEO_TS Menu
    Video:
    NTSC 16:9 (720x480) VBR
    Auto Letterboxed
    Audio:
    Not specified (Dolby AC3, 6 ch)
    Russian Language Unit :
    Title Menu
    VTS_01 Menu
    Video:
    NTSC 16:9 (720x480) VBR
    Auto Letterboxed
    Audio:
    Not specified (Dolby AC3, 2 ch)
    Russian Language Unit :
    Root Menu
    Audio Menu
    Chapter (PTT) Menu
    Код: выделить все
    Общее
    Полное имя : F:ВидеоAlice Through the Looking Glass (2016) DVD9 [BD-DVD]VIDEO_TSVTS_01_1.VOB
    Формат : MPEG-PS
    Размер файла : 1024 Мбайт
    Продолжительность : 14 м.
    Общий поток : 9772 Кбит/сек
    Видео
    Идентификатор : 224 (0xE0)
    Формат : MPEG Video
    Версия формата : Version 2
    Профиль формата : Main@Main
    Параметр BVOP формата : Да
    Параметр матрицы формата : Выборочная
    Параметр GOP формата : M=3, N=12
    Продолжительность : 14 м.
    Битрейт : 8700 Кбит/сек
    Ширина : 720 пикселей
    Высота : 480 пикселей
    Соотношение сторон : 16:9
    Частота кадров : 23, 976 (24000/1001) кадра/сек
    Цветовое пространство : YUV
    Субдискретизация насыщенности : 4:2:0
    Битовая глубина : 8 бит
    Тип развёртки : Прогрессивная
    Порядок развёртки : 2:3 Pulldown
    Метод сжатия : С потерями
    Бит/(Пиксели*Кадры) : 1.050
    Временной код первого кадра : 00:00:00:00
    Оригинал временного кода : Group of pictures t_head
    GOP, открыто/закрыто : Открыто
    GOP, открыто/закрыто на первом кадре : Закрыто
    Размер потока : 910 Мбайт (89%)
    Аудио #1
    Идентификатор : 189 (0xBD)-128 (0x80)
    Формат : AC-3
    Формат/Информация : Audio Coding 3
    Расширение режима : CM (complete main)
    Параметр Endianness формата : Big
    Режим смешивания : DVD-Video
    Продолжительность : 14 м.
    Вид битрейта : Постоянный
    Битрейт : 448 Кбит/сек
    Каналы : 6 каналов
    Расположение каналов : Front: L C R, Side: L R, LFE
    Частота : 48, 0 КГц
    Частота кадров : 31, 250 кадров/сек (1536 spf)
    Метод сжатия : С потерями
    Размер потока : 46, 9 Мбайт (5%)
    Аудио #2
    Идентификатор : 189 (0xBD)-129 (0x81)
    Формат : AC-3
    Формат/Информация : Audio Coding 3
    Расширение режима : CM (complete main)
    Параметр Endianness формата : Big
    Режим смешивания : DVD-Video
    Продолжительность : 14 м.
    Вид битрейта : Постоянный
    Битрейт : 448 Кбит/сек
    Каналы : 6 каналов
    Расположение каналов : Front: L C R, Side: L R, LFE
    Частота : 48, 0 КГц
    Частота кадров : 31, 250 кадров/сек (1536 spf)
    Метод сжатия : С потерями
    Размер потока : 46, 9 Мбайт (5%)
    Текст #1
    Идентификатор : 189 (0xBD)-32 (0x20)
    Формат : RLE
    Формат/Информация : Run-length encoding
    Режим смешивания : DVD-Video
    Текст #2
    Идентификатор : 189 (0xBD)-33 (0x21)
    Формат : RLE
    Формат/Информация : Run-length encoding
    Режим смешивания : DVD-Video
    Меню


    Скриншоты для ознакомления




    Онлайн видео Алиса в Зазеркалье



    Алиса в Зазеркалье/Alice Through the Looking Glass (2016) DVD9 [BD -> DVD]
    загрузка...
    Рейтинг →
     (голосов: 1, оценка 3/5, голосовать можно 1 раз )

    Другие торренты по теме:

  • Алиса в стране чудес & Алиса в Зазеркалье / Alice In Wonderland & Alice Through the Looking Glass (2010 / 2016) HDRip / WEB-DLRip [H.264] [MP4|1024x576|1024x552]
  • Льюис Кэрролл | Алиса в Стране чудес. Алиса в Зазеркалье (сборник) (2016) [FB2]
  • Алиса в Зазеркалье 1.3 [Ru] скачать через торрент бесплатно
  • Алиса в Зазеркалье / Alice Through the Looking Glass (2016) WEBRip [H.264 / 1080p] [Трейлер]
  • Льюис Кэрролл | Алиса в Зазеркалье (2005) [m4b|AAC]
  • Алиса в Зазеркалье / Alice Through the Looking Glass (2016) CamRip
  • Алиса в Зазеркалье / Alice Through the Looking Glass (2016) TC [H.264 / 720p-LQ] [звук с CAMRip]
  • Алиса в Зазеркалье / Alice Through the Looking Glass (2016) TC [звук с CAMRip]


    • Комментарии (0):

      Информация

      Информация

        Посетители, находящиеся в группе Гости, не могут оставлять комментарии в данной новости.

        ↓ Меню




        ↓ Опрос

        Вы добавили сайт в закладки?
        Да
        Нет


        Top 10 за месяц (Фильмы)