.
Авторизация | Регистрация
Хочешь лучшие торренты? Добавь свой email!
Добавить

Торрент скачать бесплатно

» » Афера под прикрытием / The Infiltrator (2016) BDRip [H.264 / 1080p-LQ] торрент скачать бесплатно




    Афера под прикрытием / The Infiltrator (2016) BDRip [H.264 / 1080p-LQ] торрент скачать бесплатно

    Опубликовал: Админ | Дата: 11-11-2016, 04:00 | Просмотров: 58

    Производство: Великобритания
    Жанр: Триллер, Драма, Криминал
    Режиссер: Брэд Фурман

    Актеры
    Брайан Крэнстон, Лиэнн Бест, Дэниэл Мейс, Том Вон-Лолор, Ниал Хэйес, Лара Дэкаро, Джульетт Обри, Олимпия Дукакис, Эми Райан, Джон Легуизамо.

    Описание

    Федеральный агент Боб Мейзур, специалист по внедрению в преступные группировки, ставит себе целью раскрыть схему отмывания денег наркокартеля Пабло Эскобара. В одной команде со вспыльчивым оперативником Эмиром Абреу, а также начинающим агентом Кэти Эртс, исполняющей роль подставной невесты Боба, ему предстоит провернуть самую рискованную операцию под прикрытием в истории.

    Рейтинг MPAA: R (лицам до 17 лет обязательно присутствие взрослого)
    Дата мировой премьеры: 6 июля 2016
    Дата российской премьеры: 11 августа 2016, Вольга
    Продолжительность: 02: 07: 08
    Качество видео: BDRip
    Перевод: Дублированный (iTunes)
    Видео: AVC/H.264, 1920x808 (2.40: 1), ~5000 Kbps
    Аудио: AC3, 6 ch, 384 Kbps

    General
    Unique ID : 212794875614373804286191249120446454844 (0xA016CD6341BB0E01977AC070C5091C3C)
    Complete name : J: СборкаАфера под прикрытием. - The.Infiltrator.2016.1080p.BluRay.АС3.iTunes.mkv
    Format : Matroska
    Format version : Version 4/Version 2
    File size : 4.78 GiB
    Duration : 2h 7mn
    Overall bit rate : 5 384 Kbps
    Encoded date : UTC 2016-11-05 14: 20: 28
    Writing application : mkvmerge v7.3.0 (\'Nouages\') 32bit built on Oct 22 2014 18: 44: 01
    Writing library : libebml v1.3.0 + libmatroska v1.4.1
    DURATION : 02: 07: 03.520000000
    NUMBER_OF_FRAMES : 238235
    NUMBER_OF_BYTES : 365928960
    _STATISTICS_WRITING_APP : mkvmerge v7.3.0 (\'Nouages\') 32bit built on Oct 22 2014 18: 44: 01
    _STATISTICS_WRITING_DATE_UTC : 2016-11-05 14: 20: 28
    _STATISTICS_TAGS : BPS DURATION NUMBER_OF_FRAMES NUMBER_OF_BYTES
    Video #1
    ID : 1
    Format : AVC
    Format/Info : Advanced Video Codec
    Format profile : High@L4.1
    Format settings, CABAC : Yes
    Format settings, ReFrames : 5 frames
    Codec ID : V_MPEG4/ISO/AVC
    Duration : 2h 7mn
    Bit rate : 5 000 Kbps
    Width : 1 920 pixels
    Height : 808 pixels
    Display aspect ratio : 2.40: 1
    Frame rate mode : Constant
    Frame rate : 23.976 fps
    Color space : YUV
    Chroma subsampling : 4: 2: 0
    Bit depth : 8 bits
    Scan type : Progressive
    Bits/(Pixel*Frame) : 0.134
    Stream size : 4.35 GiB (91%)
    Writing library : x264 core 148 r2638 7599210
    Encoding settings : cabac=1/ref=5/deblock=1: -2: -2/analyse=0x3: 0x133/me=umh/subme=11/psy=1/psy_rd=1.00: 0.25/mixed_ref=1/me_range=32/chroma_me=1/trellis=2/8x8dct=1/cqm=0/deadzone=21, 11/fast_pskip=0/chroma_qp_offset=-4/threads=12/lookahead_threads=1/sliced_threads=0/nr=0/decimate=1/interlaced=0/bluray_compat=0/constrained_intra=0/bframes=4/b_pyramid=2/b_adapt=2/b_bias=0/direct=3/weightb=1/open_gop=0/weightp=2/keyint=240/keyint_min=23/scenecut=40/intra_refresh=0/rc_lookahead=60/rc=2pass/mbtree=1/bitrate=5000/ratetol=1.0/qcomp=0.60/qpmin=0/qpmax=69/qpstep=4/cplxblur=20.0/qblur=0.5/ip_ratio=1.40/aq=1: 1.00
    Default : Yes
    Forced : No
    Audio #2
    ID : 2
    Format : AC-3
    Format/Info : Audio Coding 3
    Mode extension : CM (complete main)
    Format settings, Endianness : Big
    Codec ID : A_AC3
    Duration : 2h 7mn
    Bit rate mode : Constant
    Bit rate : 384 Kbps
    Channel(s) : 6 channels
    Channel positions : Front: L C R, Side: L R, LFE
    Sampling rate : 48.0 KHz
    Bit depth : 16 bits
    Compression mode : Lossy
    Stream size : 349 MiB (7%)
    Default : Yes
    Forced : No


    Скриншоты для ознакомления




    Онлайн видео Афера под прикрытием



    Афера под прикрытием/The Infiltrator (2016) BDRip [H.264/1080p-LQ]
    загрузка...
    Рейтинг →
     (голосов: 1, оценка 3/5, голосовать можно 1 раз )

    Другие торренты по теме:

  • Афера под прикрытием / The Infiltrator (2016) BDRemux [H.264 / 1080p] [EN / EN, Sp Sub]
  • Афера под прикрытием / The Infiltrator (2016) BDRip [H.264 / 720p] [EN]
  • Афера под прикрытием / The Infiltrator (2016) BDRip [H.264 / 1080p] [EN]
  • Афера под прикрытием / The Infiltrator (2016) HDRip [Звук с TS]
  • Афера под прикрытием / The Infiltrator (2016) BDRip [H.264 / 720p-LQ] [Звук с TS]
  • Афера под прикрытием / The Infiltrator (2016) HDRip [Line]
  • Афера под прикрытием / The Infiltrator (2016) BDRip [H.264 / 1080p] [Line]
  • Афера под прикрытием / The Infiltrator (2016) BDRip [H.264] [AVO]


    • Комментарии (0):

      Информация

      Информация

        Посетители, находящиеся в группе Гости, не могут оставлять комментарии в данной новости.

        ↓ Меню




        ↓ Опрос

        Вы добавили сайт в закладки?
        Да
        Нет


        Top 10 за месяц (Фильмы)