.
Авторизация | Регистрация
Хочешь лучшие торренты? Добавь свой email!
Добавить

Торрент скачать бесплатно

» » Иллюзия обмана 2 / Now You See Me 2 (2016) DVD9 [BD -> DVD] торрент скачать бесплатно




    Иллюзия обмана 2 / Now You See Me 2 (2016) DVD9 [BD -> DVD] торрент скачать бесплатно

    Опубликовал: Админ | Дата: 11-11-2016, 04:00 | Просмотров: 170

    Производство: США, Китай, Великобритания, Канада/Summit Entertainment, Lionsgate
    Жанр: Боевик, триллер, комедия, криминал, детектив, приключения
    Режиссер: Джон М. Самое интересное в это истории, что об этом Европарламент ничего не знал. Чу
    Продюсеры: Бобби Коэн, Алекс Куртцман, Роберто Орси

    Актеры
    Джесси Айзенберг, Марк Руффало, Вуди Харрельсон, Дэйв Франко, Дэниэл Рэдклифф, Лиззи Каплан, Джей Чоу, Санаа Лэтэн, Майкл Кейн, Морган Фриман

    Описание

    Четыре всадника, команда лучших иллюзионистов мира, снова в сборе! Их магия стала еще совершеннее, а враги — опаснее. На сей раз им предстоит спасти свою репутацию и вывести на чистую воду жестокого техномагната…

    Возраст: 12+ (зрителям, достигшим 12 лет)
    Рейтинг MPAA: PG-13 (детям до 13 лет просмотр нежелателен)
    Дата мировой премьеры: 2 июня 2016
    Дата премьеры в России: 9 июня 2016, Централ Партнершип
    Дата выхода DVD/Blu-ray релиза: 28 сентября 2016, НД Плэй

    Продолжительность: 02: 09: 05
    Качество видео: DVD9 BD - DVD
    Перевод: Дублированный
    Субтитры: Вшитые отключаемые
    Язык субтитров: Русский, английский
    Доп. материалы: Отсутствуют
    Видео: MPEG-2, 720x480@853x480 (NTSC 16: 9), ~6900 Kbps
    Аудио 1: AC3 5.1, 448 Kbps (Русский - дублированный)
    Аудио 2: AC3 5.1, 448 Kbps (Английский - оригинал)
    Код: выделить все
    Title: Now You See Me 2 (2016) DVD9 [BD-DVD]
    Size: 7.89 Gb ( 8 275 174, 00 KBytes ) - DVD-9
    Enabled regions: 1, 2, 3, 4, 5, 6, 7, 8
    VTS_01 :
    Play Length: 02:09:05
    Video: NTSC 16:9 (720x480) VBR, Auto Letterboxed
    Audio:
    Russian (Dolby AC3, 6 ch)
    English (Dolby AC3, 6 ch)
    Subtitles:
    Russian
    English
    * Menus Information *
    VIDEO_TS Menu
    Video:
    NTSC 16:9 (720x480) VBR
    Auto Letterboxed
    Audio:
    Not specified (Dolby AC3, 6 ch)
    Russian Language Unit :
    Title Menu
    VTS_01 Menu
    Video:
    NTSC 16:9 (720x480) VBR
    Auto Letterboxed
    Audio:
    Not specified (Dolby AC3, 2 ch)
    Russian Language Unit :
    Root Menu
    Audio Menu
    Chapter (PTT) Menu
    Код: выделить все
    Общее
    Полное имя : F:ВидеоNow You See Me 2 (2016) DVD9 [BD-DVD]VIDEO_TSVTS_01_1.VOB
    Формат : MPEG-PS
    Размер файла : 1024 Мбайт
    Продолжительность : 17 м.
    Режим общего битрейта : Переменный
    Общий поток : 7965 Кбит/сек
    Видео
    Идентификатор : 224 (0xE0)
    Формат : MPEG Video
    Версия формата : Version 2
    Профиль формата : Main@Main
    Параметр BVOP формата : Да
    Параметр матрицы формата : Выборочная
    Параметр GOP формата : M=3, N=12
    Продолжительность : 17 м.
    Вид битрейта : Переменный
    Битрейт : 6911 Кбит/сек
    Максимальный битрейт : 8900 Кбит/сек
    Ширина : 720 пикселей
    Высота : 480 пикселей
    Соотношение сторон : 16:9
    Частота кадров : 23, 976 (24000/1001) кадра/сек
    Цветовое пространство : YUV
    Субдискретизация насыщенности : 4:2:0
    Битовая глубина : 8 бит
    Тип развёртки : Прогрессивная
    Порядок развёртки : 2:3 Pulldown
    Метод сжатия : С потерями
    Бит/(Пиксели*Кадры) : 0.834
    Временной код первого кадра : 00:00:00:00
    Оригинал временного кода : Group of pictures t_head
    GOP, открыто/закрыто : Открыто
    GOP, открыто/закрыто на первом кадре : Закрыто
    Размер потока : 888 Мбайт (87%)
    Аудио #1
    Идентификатор : 189 (0xBD)-128 (0x80)
    Формат : AC-3
    Формат/Информация : Audio Coding 3
    Расширение режима : CM (complete main)
    Параметр Endianness формата : Big
    Режим смешивания : DVD-Video
    Продолжительность : 17 м.
    Вид битрейта : Постоянный
    Битрейт : 448 Кбит/сек
    Каналы : 6 каналов
    Расположение каналов : Front: L C R, Side: L R, LFE
    Частота : 48, 0 КГц
    Частота кадров : 31, 250 кадров/сек (1536 spf)
    Метод сжатия : С потерями
    Размер потока : 57, 6 Мбайт (6%)
    Аудио #2
    Идентификатор : 189 (0xBD)-129 (0x81)
    Формат : AC-3
    Формат/Информация : Audio Coding 3
    Расширение режима : CM (complete main)
    Параметр Endianness формата : Big
    Режим смешивания : DVD-Video
    Продолжительность : 17 м.
    Вид битрейта : Постоянный
    Битрейт : 448 Кбит/сек
    Каналы : 6 каналов
    Расположение каналов : Front: L C R, Side: L R, LFE
    Частота : 48, 0 КГц
    Частота кадров : 31, 250 кадров/сек (1536 spf)
    Метод сжатия : С потерями
    Размер потока : 57, 6 Мбайт (6%)
    Текст #1
    Идентификатор : 189 (0xBD)-32 (0x20)
    Формат : RLE
    Формат/Информация : Run-length encoding
    Режим смешивания : DVD-Video
    Текст #2
    Идентификатор : 189 (0xBD)-33 (0x21)
    Формат : RLE
    Формат/Информация : Run-length encoding
    Режим смешивания : DVD-Video
    Меню


    Скриншоты для ознакомления




    Онлайн видео Иллюзия обмана 2



    Иллюзия обмана 2/Now You See Me 2 (2016) DVD9 [BD -> DVD]
    загрузка...
    Рейтинг →
     (голосов: 1, оценка 4/5, голосовать можно 1 раз )

    Другие торренты по теме:

  • Иллюзия обмана: Второй акт / Now You See Me 2 (2016) WEBRip [H.264 / 1080p] [Тизер] [EN] скачать через торрент бесплатно
  • Brian Tyler - Иллюзия обмана 2 / Now You See Me 2 (Original Motion Picture Soundtrack) (2016) [AAC|WEB-DL|256 кб / с]<Soundtrack>
  • Иллюзия обмана 2 / Now You See Me 2 (2016) CamRip
  • Brian Tyler - Иллюзия обмана / Now You See Me (Original Motion Picture Soundtrack) (2013) [AAC|WEB-DL|256 кб / с]<Soundtrack>
  • Brian Tyler - Now You See Me / Иллюзия обмана (Complete Motion Picture Score) (2013) [MP3|320 кб / с]<Score>
  • Иллюзия обмана 2 / Now You See Me 2 (2016) CamRip
  • Иллюзия обмана 2 / Now You See Me 2 (2016)
  • Иллюзия обмана 2 / Now You See Me 2 (2016) BDRip [H.264 / 720p]


    • Комментарии (0):

      Информация

      Информация

        Посетители, находящиеся в группе Гости, не могут оставлять комментарии в данной новости.

        ↓ Меню




        ↓ Опрос

        Вы добавили сайт в закладки?
        Да
        Нет


        Top 10 за месяц (Фильмы)