.
Авторизация | Регистрация
Хочешь лучшие торренты? Добавь свой email!
Добавить

Торрент скачать бесплатно

» » Коллектор (2016) WEB-DL [H.264 / 1080p-LQ] торрент скачать бесплатно




    Коллектор (2016) WEB-DL [H.264 / 1080p-LQ] торрент скачать бесплатно

    Опубликовал: Админ | Дата: 11-11-2016, 04:00 | Просмотров: 48

    Производство: Россия
    Жанр: Драма, Триллер
    Режиссер: Алексей Красовский
    Продюсер: Георгий Шабанов, Дмитрий Руженцев, Эдуард Илоян

    Актеры
    Константин Хабенский, Евгений Стычкин, Ксения Буравская, Полина Агуреева, Кирилл Плетнёв, Валентина Лукащук, Александр Тютин, Игорь Золотовицкий, Никита Тюнин, Татьяна Лазарева.

    Описание

    Артур — мастер своего дела. Работая только с крупными должниками, он находит всю их подноготную и эффективно использует против них. Он никогда не прибегает к банальным методам, его конек — психологическая атака. Артур умеет виртуозно перевоплощаться, сбивать с толку, выводить из равновесия и так допекать своих клиентов, что они готовы вернуть все, только бы никогда больше не слышать его голос. Но однажды Артур сам становится мишенью: в сети появляется скандальное видео с его участием, и от него мгновенно отворачиваются друзья и коллеги. Под угрозой оказывается не только его репутация, но и жизнь… Теперь у коллектора есть всего одна ночь, чтобы найти того, кто загнал его в угол.

    Возраст: 16+ (зрителям, достигшим 16 лет)
    Дата мировой премьеры: 2 июля 2016
    Дата российской премьеры: 6 октября 2016, WDSSPR
    Дата выхода DVD/Blu-ray релиза: 14 ноября 2016, НД Плэй
    Продолжительность: 01: 11: 04
    Качество видео: WEB-DL 1080p
    Перевод: Не требуется(русский, iTunes)
    Субтитры: Отсутствуют
    Видео: AVC/H.264, 1920x804, 25, 000 fps, ~4475 Kbps
    Аудио: AC3, 6 ch, 384 Kbps, CBR
    Дополнительно: Сохранены оригинальные главы (чаптеры)
    YouTube

    Общее
    Уникальный идентификатор : 229166569893395942029890225199829476595 (0xAC67E03C5C277C42B73D7E1E6003E4F3)
    Полное имя : D: ФильмыМои раздачиКоллекторCollector.2016.WEBDL1080p.mkv
    Формат : Matroska
    Версия формата : Version 2
    Размер файла : 2, 46 Гбайт
    Продолжительность : 1 ч. Прикольно все это наверно придумал Европарламент потратив достаточно времени. 11 м.
    Общий поток : 4958 Кбит/сек
    Название фильма : Collector (2016) - Release for HDCLUB
    Дата кодирования : UTC 2016-11-09 20: 37: 40
    Программа кодирования : mkvmerge v3.4.0 (\'Rapunzel\') built on May 15 2010 09: 38: 20
    Библиотека кодирования : libebml v0.8.0 + libmatroska v0.9.0
    Видео
    Идентификатор : 1
    Формат : AVC
    Формат/Информация : Advanced Video Codec
    Профиль формата : High@L4.0
    Параметр CABAC формата : Да
    Параметр ReFrames формата : 5 кадров
    Идентификатор кодека : V_MPEG4/ISO/AVC
    Продолжительность : 1 ч. 11 м.
    Битрейт : 4475 Кбит/сек
    Ширина : 1920 пикселей
    Высота : 804 пикселя
    Соотношение сторон : 2, 40: 1
    Режим частоты кадров : Постоянный
    Частота кадров : 25, 000 кадров/сек
    Цветовое пространство : YUV
    Субдискретизация насыщенности : 4: 2: 0
    Битовая глубина : 8 бит
    Тип развёртки : Прогрессивная
    Бит/(Пиксели*Кадры) : 0.116
    Размер потока : 2, 22 Гбайт (90%)
    Заголовок : Collector (2016) - Release for HDCLUB
    Язык : Russian
    Default : Да
    Forced : Нет
    Основные цвета : BT.709
    Характеристики трансфера : BT.709
    Коэффициенты матрицы : BT.709
    Аудио
    Идентификатор : 2
    Формат : AC-3
    Формат/Информация : Audio Coding 3
    Расширение режима : CM (complete main)
    Параметр Endianness формата : Big
    Идентификатор кодека : A_AC3
    Продолжительность : 1 ч. 11 м.
    Вид битрейта : Постоянный
    Битрейт : 384 Кбит/сек
    Каналы : 6 каналов
    Расположение каналов : Front: L C R, Side: L R, LFE
    Частота : 48, 0 КГц
    Битовая глубина : 16 бит
    Метод сжатия : С потерями
    Размер потока : 195 Мбайт (8%)
    Заголовок : AC3 5.1 @ 384 kbps
    Язык : Russian
    Default : Да
    Forced : Нет
    Меню
    00: 00: 00.000 : en: 1
    00: 07: 01.120 : en: 2
    00: 12: 06.120 : en: 3
    00: 17: 52.960 : en: 4
    00: 24: 07.360 : en: 5
    00: 29: 37.320 : en: 6
    00: 35: 13.360 : en: 7
    00: 40: 50.320 : en: 8
    00: 46: 02.960 : en: 9
    00: 51: 26.280 : en: 10
    00: 57: 49.440 : en: 11
    01: 04: 29.360 : en: 12

    Скриншоты для ознакомления



    Все одноименные релизы в Клубе
    Время раздачи: с 12: 00 до 02: 00 (до появления первых 3-5 скачавших)

    Коллектор (2016) WEB-DL [H.264/1080p-LQ]
    загрузка...
    Рейтинг →
     (голосов: 1, оценка 4/5, голосовать можно 1 раз )

    Другие торренты по теме:

  • Коллектор (2016) WEB-DL [H.264 / 720p-LQ]
  • Коллектор (2016) WEB-DL [720p] ATV
  • Коллектор (2016) WEB-DL [1080p] ATV


    • Комментарии (0):

      Информация

      Информация

        Посетители, находящиеся в группе Гости, не могут оставлять комментарии в данной новости.

        ↓ Меню




        ↓ Опрос

        Вы добавили сайт в закладки?
        Да
        Нет


        Top 10 за месяц (Фильмы)