.
Авторизация | Регистрация
Хочешь лучшие торренты? Добавь свой email!
Добавить

Торрент скачать бесплатно

» » Сильнейший удар 2 / Shootfighter II (1996) BDRip [H.264 / 1080p-LQ] торрент скачать бесплатно




    Сильнейший удар 2 / Shootfighter II (1996) BDRip [H.264 / 1080p-LQ] торрент скачать бесплатно

    Опубликовал: Админ | Дата: 9-11-2016, 04:01 | Просмотров: 49

    Производство: США/ANA Productions, MDP Worldwide
    Жанр: Боевик
    Режиссер: Пол Зиллер

    Актеры
    Боло Йенг, Уильям Забка, Майкл Бернардо, Чейз Рэндольф, Бретт Бакстер Кларк, Кристи Эйзенберг, Джо Сон, Хорхе Хиль, Марк Маколей, В. Пол Боди, Джон Салвитти, Билл Шоу

    Описание

    Сын Лу Роулинса, полицейского из Сан-Франциско, погиб в Майами от рук организатора поединков насмерть — кровавого развлечения местных мафиози. Отец поклялся отомстить бандитам и раздавить всю группировку, прекратив, таким образом, чудовищные схватки современных гладиаторов.
    Он собирает свою команду бойцов, во главе которой становится учитель восточных единоборств, уроженец Гонконга Шинго. Каждому из них ненавистно жестокое зрелище, и они не оставляют шансов кровожадным преступникам…

    Возраст: 18+ (зрителям, достигшим 18 лет. запрещено для детей)
    Рейтинг MPAA: R (лицам до 17 лет обязательно присутствие взрослого)
    Дата выхода DVD релиза: 27 ноября 2008, Дивайс
    Релиз от: R.G. Goldenshara
    Продолжительность: 01: 30: 36
    Качество видео: BDRip (1080p-LQ)
    Перевод: Многоголосый закадровый, профессиональный (R5)
    Видео: AVC/H.264, 1920x1080 (16: 9), ~6521 kbps, 23, 976 fps
    Аудио: AC3, 6 ch, 48 kHz, 384 kbps, CBR

    General
    Unique ID : 225303468165811761461416118429314566635 (0xA97FDE9D8C25BE53918F466A877DC9EB)
    Complete name : E: Мои рипыСильнейший удар 2.1996.BDRip.1080p.MVO.mkv
    Format : Matroska
    Format version : Version 4/Version 2
    File size : 4.36 GiB
    Duration : 1h 30mn
    Overall bit rate : 6 890 Kbps
    Encoded date : UTC 2016-11-06 04: 56: 01
    Writing application : mkvmerge v6.8.0 (\'Theme for Great Cities\') 32bit built on Mar 2 2014 21: 27: 07
    Writing library : libebml v1.3.0 + libmatroska v1.4.1
    Video
    ID : 1
    Format : AVC
    Format/Info : Advanced Video Codec
    Format profile : High@L4.1
    Format settings, CABAC : Yes
    Format settings, ReFrames : 4 frames
    Codec ID : V_MPEG4/ISO/AVC
    Duration : 1h 30mn
    Bit rate : 6 521 Kbps
    Width : 1 920 pixels
    Height : 1 080 pixels
    Display aspect ratio : 16: 9
    Frame rate mode : Constant
    Frame rate : 23.976 fps
    Color space : YUV
    Chroma subsampling : 4: 2: 0
    Bit depth : 8 bits
    Scan type : Progressive
    Bits/(Pixel*Frame) : 0.131
    Stream size : 4.03 GiB (92%)
    Writing library : x264 core 146 r2538 121396c
    Encoding settings : cabac=1/ref=4/deblock=1: -3: -3/analyse=0x3: 0x113/me=umh/subme=11/psy=1/psy_rd=1.00: 0.15/mixed_ref=1/me_range=48/chroma_me=1/trellis=2/8x8dct=1/cqm=0/deadzone=21, 11/fast_pskip=0/chroma_qp_offset=-4/threads=6/lookahead_threads=1/sliced_threads=0/nr=0/decimate=1/interlaced=0/bluray_compat=0/constrained_intra=0/bframes=8/b_pyramid=2/b_adapt=2/b_bias=0/direct=2/weightb=1/open_gop=0/weightp=2/keyint=250/keyint_min=23/scenecut=40/intra_refresh=0/rc_lookahead=50/rc=2pass/mbtree=0/bitrate=6521/ratetol=1.0/qcomp=0.60/qpmin=0/qpmax=69/qpstep=4/cplxblur=20.0/qblur=0.5/vbv_maxrate=14000/vbv_bufsize=14000/nal_hrd=none/filler=0/ip_ratio=1.40/pb_ratio=1.30/aq=2: 1.00
    Language : English
    Default : Yes
    Forced : No
    Color primaries : Generic film
    Matrix coefficients : YCgCo
    Audio
    ID : 2
    Format : AC-3
    Format/Info : Audio Coding 3
    Mode extension : CM (complete main)
    Format settings, Endianness : Big
    Codec ID : A_AC3
    Duration : 1h 30mn
    Bit rate mode : Constant
    Bit rate : 384 Kbps
    Channel(s) : 6 channels
    Channel positions : Front: L C R, Side: L R, LFE
    Sampling rate : 48.0 KHz
    Bit depth : 16 bits
    Compression mode : Lossy
    Delay relative to video : 1s 300ms
    Stream size : 249 MiB (6%)
    Title : MVO (R5)
    Language : Russian
    Default : Yes
    Forced : No
    Menu
    00: 00: 00.000 : en: Chapter 1


    Скриншоты для ознакомления




    Онлайн видео Сильнейший удар 2



    Сильнейший удар 2/Shootfighter II (1996) BDRip [H.264/1080p-LQ]
    загрузка...
    Рейтинг →
     (голосов: 1, оценка 3/5, голосовать можно 1 раз )

    Другие торренты по теме:

  • Сильнейший удар: Бой до смерти / Shootfighter: Fight to the Death (1992) BDRip [H.264 / 1080p-LQ]


    • Комментарии (0):

      Информация

      Информация

        Посетители, находящиеся в группе Гости, не могут оставлять комментарии в данной новости.

        ↓ Меню




        ↓ Опрос

        Вы добавили сайт в закладки?
        Да
        Нет


        Top 10 за месяц (Фильмы)