.
Авторизация | Регистрация
Хочешь лучшие торренты? Добавь свой email!
Добавить

Торрент скачать бесплатно

» » Гу-га (1989) DVDRip [H.264] торрент скачать бесплатно




    Гу-га (1989) DVDRip [H.264] торрент скачать бесплатно

    Опубликовал: Админ | Дата: 9-11-2016, 04:01 | Просмотров: 38

    Производство: СССР, Одесская киностудия
    Жанр: Драма, Военный
    Режиссер: Виллен Новак

    Актеры
    Алексей Волков, Андрей Толубеев, Вера Сотникова, Алексей Горбунов, Николай Холошин, Александр Калугин, Константин Шафоренко, Александр Соловьев, Сергей Скрипкин, Владимир Носик

    Описание

    По повести Мориса Симашко.
    Военные годы. Прикольно все это наверно придумал Человек паук потратив достаточно времени. Ташкент. В глубоком тылу идёт подготовка кадров для Красной Армии, однако молодые курсанты лётной школы находят время и для встреч с девушками, и для потасовок с танкистами. Однажды Борис Тираспольский даже отправляется на свидание к своей подруге Тамаре на учебном самолёте. Пока влюбленные занимаются любовью в колхозном саду, самолет находит наряд НКВД. За эти заслуги он и ещё двое курсантов приговором военного суда этапируются в штрафную роту…

    Возраст: 18+ (зрителям, достигшим 18 лет. Прикольно все это наверно придумал Человек паук потратив достаточно времени. запрещено для детей)
    Продолжительность: 02: 06: 23
    Качество видео: DVDRip
    Видео: AVC/H.264, 704x544, ~1885 Kbps
    Аудио: AC3, 6 ch, 384 Kbps
    Общее
    Уникальный идентификатор : 210674232587313164450848478808301729700 (0x9E7E619D3588BA51B3FB4379BD8D77A4)
    Полное имя : G: Фильмы о ВОВГУ-ГАГУ-ГА. 1989.mkv
    Формат : Matroska
    Версия формата : Version 4/Version 2
    Размер файла : 2, 00 Гбайт
    Продолжительность : 2 ч. 6 м.
    Общий поток : 2271 Кбит/сек
    Название фильма : Release for Topmost
    Дата кодирования : UTC 2016-11-05 06: 33: 06
    Программа кодирования : mkvmerge v6.2.0 (\'Promised Land\') built on Apr 28 2013 12: 22: 01
    Библиотека кодирования : libebml v1.3.0 + libmatroska v1.4.0
    Видео
    Идентификатор : 1
    Формат : AVC
    Формат/Информация : Advanced Video Codec
    Профиль формата : High@L4.1
    Параметр CABAC формата : Да
    Параметр ReFrames формата : 4 кадра
    Идентификатор кодека : V_MPEG4/ISO/AVC
    Продолжительность : 2 ч. 6 м.
    Битрейт : 1885 Кбит/сек
    Ширина : 704 пикселя
    Высота : 544 пикселя
    Соотношение сторон : 1, 294
    Режим частоты кадров : Постоянный
    Частота кадров : 25, 000 кадров/сек
    Цветовое пространство : YUV
    Субдискретизация насыщенности : 4: 2: 0
    Битовая глубина : 8 бит
    Тип развёртки : Прогрессивная
    Бит/(Пиксели*Кадры) : 0.197
    Размер потока : 1, 63 Гбайт (81%)
    Заголовок : ГУ-ГА. 1989 (Release for Topmost)
    Библиотека кодирования : x264 core 130 r2273 b3065e6
    Настройки программы : cabac=1/ref=3/deblock=1: 0: 0/analyse=0x3: 0x113/me=hex/subme=7/psy=1/psy_rd=1.00: 0.15/mixed_ref=1/me_range=16/chroma_me=1/trellis=1/8x8dct=1/cqm=0/deadzone=21, 11/fast_pskip=1/chroma_qp_offset=-3/threads=12/lookahead_threads=2/sliced_threads=0/nr=0/decimate=0/interlaced=0/bluray_compat=0/constrained_intra=0/bframes=3/b_pyramid=2/b_adapt=1/b_bias=0/direct=3/weightb=1/open_gop=0/weightp=2/keyint=240/keyint_min=23/scenecut=40/intra_refresh=0/rc_lookahead=40/rc=2pass/mbtree=1/bitrate=1885/ratetol=1.0/qcomp=0.60/qpmin=0/qpmax=69/qpstep=4/cplxblur=20.0/qblur=0.5/ip_ratio=1.40/aq=1: 1.00
    Язык : Russian
    Default : Да
    Forced : Нет
    Аудио
    Идентификатор : 2
    Формат : AC-3
    Формат/Информация : Audio Coding 3
    Расширение режима : CM (complete main)
    Параметр Endianness формата : Big
    Идентификатор кодека : A_AC3
    Продолжительность : 2 ч. 6 м.
    Вид битрейта : Постоянный
    Битрейт : 384 Кбит/сек
    Каналы : 6 каналов
    Расположение каналов : Front: L C R, Side: L R, LFE
    Частота : 48, 0 КГц
    Битовая глубина : 16 бит
    Метод сжатия : С потерями
    Размер потока : 347 Мбайт (17%)
    Заголовок : AC3, 6ch, 384Kbps
    Язык : Russian
    Default : Да
    Forced : Нет


    Скриншоты для ознакомления




    Гу-га (1989) DVDRip [H.264]
    загрузка...
    Рейтинг →
     (голосов: 1, оценка 5/5, голосовать можно 1 раз )

    Другие торренты по теме:



      Комментарии (0):

      Информация

      Информация

        Посетители, находящиеся в группе Гости, не могут оставлять комментарии в данной новости.

        ↓ Меню




        ↓ Опрос

        Вы добавили сайт в закладки?
        Да
        Нет


        Top 10 за месяц (Фильмы)