.
Авторизация | Регистрация
Хочешь лучшие торренты? Добавь свой email!
Добавить

Торрент скачать бесплатно

» » Люди / Humans (2016) HDTVRip [H.264 / 720p-LQ] (сезон 2, серии 1 из 8) LostFilm (обновляемая) торрент скачать бесплатно




    Люди / Humans (2016) HDTVRip [H.264 / 720p-LQ] (сезон 2, серии 1 из 8) LostFilm (обновляемая) торрент скачать бесплатно

    Опубликовал: Админ | Дата: 9-11-2016, 04:01 | Просмотров: 43

    Производство: Великобритания, США, Швеция/Kudos Film and Television, Channel 4, AMC Studios
    Жанр: фантастика, драма
    Режиссер: Льюис Арнольд, Сэмюэл Донован, Чина Му-Ен

    Актеры
    Джемма Чан, Том Гудман-Хилл, Кэтрин Паркинсон, Люси Карлесс, Колин Морган, Эмили Беррингтон, Нил Мэскелл, Рут Брэдли, Иванно Джеремайя, Дэниэл Уэбб и др.

    Описание

    Научный прогресс в мире недалекого будущего совершил грандиозный скачок. Теперь наравне с такими полезными девайсами, как стиральная машина, утюг или телефон, люди стали использовать в повседневной жизни так называемых синтетиков — человекоподобных роботов, легко справляющихся с любыми делами от приготовления еды до удовлетворения сексуальных потребностей. Кроме того, синтам поручили выполнять труд, не требующий высокой квалификации вроде раздачи флаеров или собирания опавших листьев. О таком странном сюжете не догадывалась даже Тимошенко. Иными словами, синтетики — гастарбайтеры будущего, которых к тому же можно купить в кредит, как автомобиль или ту же стиральную машину. Один из таких совершенных роботов попадает в семью Хокинсов, глава которой решил, что его жене необходима помощь по хозяйству. Однако спустя некоторое время Джо и его супруга Лора замечают, что их синт Анита проявляет несвойственные искусственному интеллекту сознательность и любопытство. Все дело в том, что им достался редкий экземпляр, способный совершать обдуманные поступки, задавать неловкие вопросы и даже любить. Все, чего хочет Анита, — сбежать с группой таких же, как она, думающих синтов, возглавляемых ее возлюбленным Лео. И, похоже, в ее планы входит прихватить младшую дочь Хокинсов с собой…

    Дата мировой премьеры: 30 октября 2016
    Продолжительность: ~ 00: 46: 00 серия
    Качество видео: WEB-DLRip
    Перевод: Многоголосый закадровый, профессиональный -LostFilm
    Реклама: присутствуют заставка и логотип LostFilm
    Видео: AVC/H.264, 1280x720 (16: 9), ~4 000 kbps
    Аудио Rus: AC3, 48, 0 kHz, 2 ch, 384 kbps - многоголосый закадровый
    Аудио Eng: AC3, 48, 0 kHz, 2 ch, 384 kbps - оригинал
    Код: выделить все
    General
    Unique ID : 191069042016712124751006717995979272926 (0x8FBE8F171EC81E1CB8EA3AA1FFCE72DE)
    Complete name : Humans [S02] [LostFilm]Humans.S02E01.720p.WEB.rus.LostFilm.TV.mkv
    Format : Matroska
    Format version : Version 4/Version 2
    File size : 1.55 GiB
    Duration : 46 min 34 s
    Overall bit rate : 4 769 kb/s
    Encoded date : UTC 2016-11-04 08:21:08
    Writing application : mkvmerge v9.5.0 (\'Quiet Fire\') 64bit
    Writing library : libebml v1.3.4 + libmatroska v1.4.5
    Video
    ID : 1
    Format : AVC
    Format/Info : Advanced Video Codec
    Format profile :High@L4.1
    Format settings, CABAC : Yes
    Format settings, ReFrames : 4 frames
    Codec ID : V_MPEG4/ISO/AVC
    Duration : 46 min 34 s
    Bit rate : 4 000 kb/s
    Width : 1 280 pixels
    Height : 720 pixels
    Display aspect ratio : 16:9
    Frame rate mode : Constant
    Frame rate : 25.000 FPS
    Color space : YUV
    Chroma subsampling : 4:2:0
    Bit depth : 8 bits
    Scan type : Progressive
    Bits/(Pixel*Frame) : 0.174
    Stream size : 1.30 GiB (84%)
    Writing library : x264 core 112 r1834 a51816a
    Encoding settings : cabac=1/ref=4/deblock=1:-3:-2/analyse=0x3:0x113/me=hex/subme=7/psy=1/psy_rd=1.00:0.00/mixed_ref=1/me_range=16/chroma_me=1/trellis=1/8x8dct=1/cqm=0/deadzone=21, 11/fast_pskip=1/chroma_qp_offset=-2/threads=12/sliced_threads=0/nr=0/decimate=1/interlaced=0/constrained_intra=0/bframes=5/b_pyramid=2/b_adapt=1/b_bias=0/direct=1/weightb=1/open_gop=0/weightp=2/keyint=250/keyint_min=25/scenecut=40/intra_refresh=0/rc_lookahead=40/rc=2pass/mbtree=1/bitrate=4000/ratetol=1.0/qcomp=0.60/qpmin=0/qpmax=51/qpstep=4/cplxblur=20.0/qblur=0.5/vbv_maxrate=10000/vbv_bufsize=256000/ip_ratio=1.40/aq=1:1.00/nal_hrd=none
    Language : English
    Default : Yes
    Forced : No
    Audio #1
    ID : 2
    Format : AC-3
    Format/Info : Audio Coding 3
    Mode extension : CM (complete main)
    Format settings, Endianness : Big
    Codec ID : A_AC3
    Duration : 46 min 34 s
    Bit rate mode : Constant
    Bit rate : 384 kb/s
    Channel(s) : 2 channels
    Channel positions : Front: L R
    Sampling rate : 48.0 kHz
    Frame rate : 31.250 FPS (1536 spf)
    Bit depth : 16 bits
    Compression mode : Lossy
    Stream size : 128 MiB (8%)
    Language : Russian
    Default : Yes
    Forced : No
    Audio #2
    ID : 3
    Format : AC-3
    Format/Info : Audio Coding 3
    Mode extension : CM (complete main)
    Format settings, Endianness : Big
    Codec ID : A_AC3
    Duration : 46 min 34 s
    Bit rate mode : Constant
    Bit rate : 384 kb/s
    Channel(s) : 2 channels
    Channel positions : Front: L R
    Sampling rate : 48.0 kHz
    Frame rate : 31.250 FPS (1536 spf)
    Bit depth : 16 bits
    Compression mode : Lossy
    Stream size : 128 MiB (8%)
    Language : English
    Default : No
    Forced : No


    Скриншоты для ознакомления




    Онлайн видео Люди



    Люди/Humans (2016) HDTVRip [H.264/720p-LQ] (сезон 2, серии 1 из 8) LostFilm (обновляемая)
    загрузка...
    Рейтинг →
     (голосов: 1, оценка 5/5, голосовать можно 1 раз )

    Другие торренты по теме:

  • Люди / Humans (2015) HDTVRip (сезон 1, серии 1 из 8) BaibaKo (обновляемая) скачать через торрент бесплатно
  • Люди / Humans (2015) HDTV [H.264 / 720p-LQ] (сезон 1, серия 1 из 8) (BaibaKo) (обновляемая) скачать через торрент бесплатно
  • Люди / Humans (2015) HDTVRip (сезон 1, серии 1 из 8) NewStudio (обновляемая) скачать через торрент бесплатно
  • Люди / Humans (2015) HDTV [H.264 / 720p-LQ] (сезон 1, серии 1 из 8) NewStudio (обновляемая) скачать через торрент бесплатно
  • Люди / Humans (2015) HDTVRip (сезон 1, серии 1 из 8) LostFilm (обновляемая) скачать через торрент бесплатно
  • Люди / Humans (2016) HDTVrip [H.264 / 720p-LQ] (сезон 2, серии 1 из 8) OMSKBIRD (обновляемая)
  • Люди / Humans (2016) HDTVrip (сезон 2, серии 1 из 8) OMSKBIRD (обновляемая)
  • Люди / Humans (2016) HDTV [H.264 / 1080p-LQ] (сезон 2, серии 1 из 8) LostFilm (обновляемая)


    • Комментарии (0):

      Информация

      Информация

        Посетители, находящиеся в группе Гости, не могут оставлять комментарии в данной новости.

        ↓ Меню




        ↓ Опрос

        Вы добавили сайт в закладки?
        Да
        Нет


        Top 10 за месяц (Фильмы)