.
Авторизация | Регистрация
Хочешь лучшие торренты? Добавь свой email!
Добавить

Торрент скачать бесплатно

» » Эш против Зловещих мертвецов / Ash vs. Evil Dead (2016) WEBRip [H.264 / 720p-LQ] (сезон 2, серии 1-6 из 10) Jaskier (обновляемая) торрент скачать бесплатно




    Эш против Зловещих мертвецов / Ash vs. Evil Dead (2016) WEBRip [H.264 / 720p-LQ] (сезон 2, серии 1-6 из 10) Jaskier (обновляемая) торрент скачать бесплатно

    Опубликовал: Админ | Дата: 9-11-2016, 04:01 | Просмотров: 43

    Производство: США/Renaissance Pictures, Starz!
    Жанр: ужасы, фэнтези, боевик, комедия
    Режиссер: Рик Джейкобсон, Тони Тилс, Майкл Дж. Бассетт

    Актеры
    Брюс Кэмпбелл, Джилл Мари Джонс, Дэна ДеЛоренцо, Люси Лоулесс, Рэй Сантьяго, Мими Роджерс, Хемки Мадера, Фил Пелетон, Дэмиен Гарви и др.

    Описание

    30 лет он избегал ответственности за свои поступки, упорно старался не взрослеть и не особо стремился вновь встретиться с ожившими мертвецами. Но, совершив ошибку, Эш узнает, что проказа кандарийских демонов угрожает распространиться по всей планете и ему снова приходится вступить в схватку с полчищами мертвой нечисти. Реки крови, горы трупов и, конечно, искрометный черный юмор – отличный подарок на Хэллоуин всем любителям ужасов, комедий, крови, треша и угара.

    Продолжительность: ~ 00: 33: 00 серия
    Качество видео: WEBRip
    Перевод: Многоголосый закадровый, профессиональный -Jaskier
    Внимание! Присутствует ненормативная лексика.
    Видео: AVC/H.264, 1280x720 (16: 9), ~5 324 kbps
    Аудио Rus: AC3, 48, 0 kHz, 6 ch, 384 kbps - многоголосый закадровый
    Аудио Eng: AC3, 48, 0 kHz, 6 ch, 640 kbps - оригинал
    Код: выделить все
    General
    Unique ID : 187206866077078171851322447493727989324 (0x8CD6BB1D64FA23A49A4A428BFEAB2E4C)
    Complete name : Ash vs. Evil Dead [S02] [Jaskier]Ash.vs.Evil.Dead.S02E01.Home.720p.AMZN.WEBRip.DD5.1.x264-Jaskier.mkv
    Format : Matroska
    Format version : Version 4/Version 2
    File size : 1.50 GiB
    Duration : 33 min 55 s
    Overall bit rate : 6 351 kb/s
    Encoded date : UTC 2016-11-08 20:32:57
    Writing application : mkvmerge v9.5.0 (\'Quiet Fire\') 64bit
    Writing library : libebml v1.3.4 + libmatroska v1.4.5
    Video
    ID : 1
    Format : AVC
    Format/Info : Advanced Video Codec
    Format profile :High@L4.1
    Format settings, CABAC : Yes
    Format settings, ReFrames : 9 frames
    Codec ID : V_MPEG4/ISO/AVC
    Duration : 33 min 55 s
    Bit rate : 5 324 kb/s
    Width : 1 280 pixels
    Height : 720 pixels
    Display aspect ratio : 16:9
    Frame rate mode : Constant
    Frame rate : 23.976 (24000/1001) FPS
    Color space : YUV
    Chroma subsampling : 4:2:0
    Bit depth : 8 bits
    Scan type : Progressive
    Bits/(Pixel*Frame) : 0.241
    Stream size : 1.26 GiB (84%)
    Writing library : x264 core 148 r2721+7 72d53ab/tmod 162ad1b X86_64
    Encoding settings : cabac=1/ref=9/deblock=1:-3:-3/analyse=0x3:0x113/me=umh/subme=10/psy=1/fade_compensate=0.00/psy_rd=1.05:0.15/mixed_ref=1/me_range=36/chroma_me=1/trellis=2/8x8dct=1/cqm=0/deadzone=6, 6/fast_pskip=0/chroma_qp_offset=-3/threads=12/lookahead_threads=2/sliced_threads=0/nr=0/decimate=0/interlaced=0/bluray_compat=0/constrained_intra=0/fgo=0/bframes=9/b_pyramid=2/b_adapt=2/b_bias=0/direct=3/weightb=1/open_gop=0/weightp=2/keyint=250/keyint_min=23/scenecut=40/intra_refresh=0/rc=crf/mbtree=0/crf=18.0000/qcomp=0.70/qpmin=0:0:0/qpmax=69:69:69/qpstep=4/ip_ratio=1.10/pb_ratio=1.10/aq=3:0.75/aq-sensitivity=10.00/aq-factor=1.00:1.00:1.00/aq2=0/aq3=0
    Language : English
    Default : Yes
    Forced : No
    Audio #1
    ID : 2
    Format : AC-3
    Format/Info : Audio Coding 3
    Mode extension : CM (complete main)
    Format settings, Endianness : Big
    Codec ID : A_AC3
    Duration : 33 min 55 s
    Bit rate mode : Constant
    Bit rate : 384 kb/s
    Channel(s) : 6 channels
    Channel positions : Front: L C R, Side: L R, LFE
    Sampling rate : 48.0 kHz
    Frame rate : 31.250 FPS (1536 spf)
    Bit depth : 16 bits
    Compression mode : Lossy
    Stream size : 93.2 MiB (6%)
    Language : Russian
    Default : Yes
    Forced : No
    Audio #2
    ID : 3
    Format : E-AC-3
    Format/Info : Enhanced Audio Coding 3
    Format settings, Endianness : Big
    Codec ID : A_EAC3
    Duration : 33 min 55 s
    Bit rate mode : Constant
    Bit rate : 640 kb/s
    Channel(s) : 6 channels
    Channel positions : Front: L C R, Side: L R, LFE
    Sampling rate : 48.0 kHz
    Frame rate : 187.500 FPS (256 spf)
    Compression mode : Lossy
    Stream size : 155 MiB (10%)
    Language : English
    Default : No
    Forced : No


    Скриншоты для ознакомления




    Онлайн видео Эш против Зловещих мертвецов



    Эш против Зловещих мертвецов/Ash vs. Evil Dead (2016) WEBRip [H.264/720p-LQ] (сезон 2, серии 1-6 из 10) Jaskier (обновляемая)
    загрузка...
    Рейтинг →
     (голосов: 1, оценка 5/5, голосовать можно 1 раз )

    Другие торренты по теме:

  • Эш против Зловещих мертвецов / Ash vs Evil Dead (2015) WEBRip [H.264 / 720p] [Трейлер] [VO] скачать через торрент бесплатно
  • Эш против Зловещих мертвецов / Ash vs Evil Dead (2015) WEBRip [H.264 / 720p] [Трейлер] [EN] скачать через торрент бесплатно
  • Эш против Зловещих мертвецов / Ash vs Evil Dead (2015) WEBRip [H.264 / 1080p] [Трейлер] скачать через торрент бесплатно
  • Эш против Зловещих мертвецов / Ash vs Evil Dead (2015) HDTVRip (сезон 1, серии 1 из 10) Novamedia (обновляемая) скачать через торрент бесплатно
  • Эш против Зловещих мертвецов / Ash vs Evil Dead (2015) WEB-DLRip (сезон 1, серии 1 из 10) NewStudio (обновляемая) скачать через торрент бесплатно
  • Эш против Зловещих мертвецов / Ash vs Evil Dead (2015) WEBRip [H.264 / 720p-LQ] (сезон 1, серии 1 из 10) Novamedia (обновляемая) скачать через торрент бесплатно
  • Эш против Зловещих мертвецов / Ash vs Evil Dead (2015) HDTVRip [H.264 / 720p-LQ] (сезон 1, серии 1 из 10) Пучков (обновляемая) скачать через торрент бесплатно
  • Эш против Зловещих мертвецов / Ash vs Evil Dead (2015) WEBRip [H.264 / 720p-LQ] (сезон 1, серия 1 из 10) (NewStudio) (обновляемая) скачать через торрент бесплатно


    • Комментарии (0):

      Информация

      Информация

        Посетители, находящиеся в группе Гости, не могут оставлять комментарии в данной новости.

        ↓ Меню




        ↓ Опрос

        Вы добавили сайт в закладки?
        Да
        Нет


        Top 10 за месяц (Фильмы)