.
Авторизация | Регистрация
Хочешь лучшие торренты? Добавь свой email!
Добавить

Торрент скачать бесплатно

» » Анна-детективъ (2016) WEB-DL [H.264 / 720p-LQ] (сезон 1, серии 1-2 из 56) Обновляемая торрент скачать бесплатно




    Анна-детективъ (2016) WEB-DL [H.264 / 720p-LQ] (сезон 1, серии 1-2 из 56) Обновляемая торрент скачать бесплатно

    Опубликовал: Админ | Дата: 9-11-2016, 04:01 | Просмотров: 52

    Производство: Россия/Star Media
    Жанр: детектив, мелодрама
    Режиссер: Феликс Герчиков, Евгений Семенов, Артур Румынский

    Актеры
    Александра Никифорова, Дмитрий Фрид, Сергей Друзьяк, Борис Хвошнянский, Ирина Сидорова, Андрей Рыклин, Андрей Лукьянов и др.

    Описание

    В центре истории — юная девушка Анна Миронова, живущая в маленьком городке Затонск. Прикольно все это наверно придумал Папа Римский потратив достаточно времени. С детства Анна одарена острым умом и впечатлительностью. Вышиванию крестиком она предпочитает гонки на диковинном велосипеде, носит шаровары, опережая моду, и говорит то, что думает. Богатый выбор, сказал кто то из толпы, к чему не понятно. И вот однажды в провинцию приезжает сыщик из Петербурга — Яков Штольман расследовать серию загадочных преступлений. Обладая тонким умом, наблюдательностью и прагматичностью, он следует логике и доверяет только фактам. Погоня за таинственным душегубом, держащим в страхе маленький городок, переплетает судьбы столь непохожих друг на друга главных героев. Так или иначе, талант Анны видеть то, чего не замечают другие, и приоткрывать завесу будущего притягивает амбициозного столичного следователя к провинциальной девушке.

    Возраст: 12+ (зрителям, достигшим 12 лет)
    Российская премьера: 7 ноября 2016
    Продолжительность: ~00: 48: 00 серия
    Качество видео: WEB-DL (720р)
    Видео: AVC/H.264, 1280x720 (16: 9), ~1400 Kbps
    Аудио: AC3, 44.1 KHz, 2 ch, 128 kbps
    Код: выделить все

    General
    Unique ID : 289372729279066200447296561086649124342 (0xD9B32912A54F6D1620E952507E88C5F6)
    Complete name : G:Анна-детективъAnna.detektiv.O1.WEB-DL.720p.mkv
    Format : Matroska
    Format version : Version 4/Version 2
    File size : 533 MiB
    Duration : 48mn 6s
    Overall bit rate : 1 549 Kbps
    Writing application : Lavf57.25.100
    Writing library : Lavf57.25.100/Lavf57.25.100
    Video
    ID : 1
    Format : AVC
    Format/Info : Advanced Video Codec
    Format profile :Main@L3.1
    Format settings, CABAC : Yes
    Format settings, ReFrames : 3 frames
    Codec ID : V_MPEG4/ISO/AVC
    Duration : 48mn 6s
    Bit rate : 1 390 Kbps
    Width : 1 280 pixels
    Height : 720 pixels
    Display aspect ratio : 16:9
    Frame rate mode : Constant
    Frame rate : 25.000 fps
    Color space : YUV
    Chroma subsampling : 4:2:0
    Bit depth : 8 bits
    Scan type : Progressive
    Bits/(Pixel*Frame) : 0.060
    Stream size : 478 MiB (90%)
    Default : Yes
    Forced : No
    Color range : Limited
    Color primaries : BT.709
    Transfer characteristics : BT.709
    Matrix coefficients : BT.709
    DURATION : 00:48:06.360000000
    Audio
    ID : 2
    Format : AC-3
    Format/Info : Audio Coding 3
    Mode extension : CM (complete main)
    Format settings, Endianness : Big
    Codec ID : A_AC3
    Duration : 48mn 6s
    Bit rate mode : Constant
    Bit rate : 128 Kbps
    Channel(s) : 2 channels
    Channel positions : Front: L R
    Sampling rate : 44.1 KHz
    Frame rate : 28.711 fps (1536 spf)
    Compression mode : Lossy
    Delay relative to video : -40ms
    Stream size : 44.0 MiB (8%)
    Language : unknown
    Default : Yes
    Forced : No
    DURATION : 00:48:06.321000000


    Скриншоты для ознакомления




    Онлайн видео Анна-детективъ (2016) WEB-DL [H.264



    Анна-детективъ (2016) WEB-DL [H.264/720p-LQ] (сезон 1, серии 1-2 из 56) Обновляемая
    загрузка...
    Рейтинг →
     (голосов: 1, оценка 3/5, голосовать можно 1 раз )

    Другие торренты по теме:

  • Анна-детективъ (2016) WEB-DL [H.264 / 720p-LQ] (сезон 1, серии 1-56 из 56)


    • Комментарии (0):

      Информация

      Информация

        Посетители, находящиеся в группе Гости, не могут оставлять комментарии в данной новости.

        ↓ Меню




        ↓ Опрос

        Вы добавили сайт в закладки?
        Да
        Нет


        Top 10 за месяц (Фильмы)