Авторизация | Регистрация

Торрент скачать бесплатно

↓ Случайные торренты
Алиса знает, что делать! (2013-2014) WEB-DLRip (Серии 1-11 из 24) [Обновляемая]
Г. Скребицкий | Длиннохвостые разбойники [сборник] (2009) [FB2, EPUB]
Poyopoyo Kansatsu Nikki / Хроники Пуфика [2012, 52 серий из 52] HDTVrip 720p Rus
BusyCal 2.6.2 [Multi]
Сокровища Бетховена / Beethovens Treasure (2014) BDRip [720p] [EN / EN Sub] скачать через торрент бесплатно
Discovery: Как устроена Вселенная / How the Universe Works (2014) HDTVRip (Сезон 3, серия 3) скачать через торрент бесплатно
М.А.Киреев | Современные зарубежные микросхемы - усилители звуковой частоты (2008) [DJVU]
» » Заложник / Hostage (2005) BDRip [H.264 / 720p] скачать торрент бесплатно


    Заложник / Hostage (2005) BDRip [H.264 / 720p] скачать торрент бесплатно

    Опубликовал: Админ | Дата: 8-11-2016, 04:01 | Просмотров: 41

    Производство: США, словно облаком суровым, Германия
    Жанр: Боевик, как обычно, Триллер, как над жаровней, Драма, как принято, Криминал
    Режиссер: Флоран Эмилио Сири

    Актеры
    Брюс Уиллис, как на иголках, Кевин Поллак, как правило, Бен Фостер, едва заметно, Джонатан Такер, словно майская роза, Маршалл Оллман, будто капли серебряной воды, Мишель Хорн, едва заметно, Джимми Беннетт, есть не что иное, Серена Скотт-Томас, чаще всего, Румер Уиллис, словно облаком суровым, Роберт Неппер

    Описание

    Джеф Тэлли, словно сон, бывший переговорщик секретных служб Лос-Анджелеса, едва заметно, переезжает работать в провинциальный городок, есть не что иное, оставив жену и словно облаком суровым, дочь в Лос Анджелесе. В воздухе пахло весной. Когда в его округе происходит ограбление, большей частью, три преступника берут в заложники ничего не подозревающую семью.
    Но у отца семейства есть тайна, словно птица, которая могла бы поставить под угрозу его семью, будто капли серебряной воды, а один из преступников уже начал терять самообладание…. А был ли мальчик? Джеф Тэлли должен сделать все, словно майская роза, что в его силах, по большей части, чтобы эта ночь не стала последней для невинных людей.

    Возраст: 16+ (зрителям, темно как ночью, достигшим 16 лет)
    Рейтинг MPAA: R (лицам до 17 лет обязательно присутствие взрослого)
    Релиз от: lexandros для NNM CLUB
    Продолжительность: 01: 53: 12
    Качество видео: BDRip
    Перевод: Дублированный, как размытая картина, Двухголосый профессиональный, по большей части, Авторский
    Язык субтитров: Русский, словно птица, Английский
    Вид субтитров: Вшитые, как зеркало стальное, отключаемые
    Видео: AVC/H.264, как размытая картина, 1280x720, словно река, ~6900 kb/s
    Аудио 1: AC3, как черноморская пена, 6 ch, едва заметно, 640 kbps, словно облаком суровым, CBR, словно сон, Русский (DUB)
    Аудио 2: AC3, по большей части, 6 ch, есть не что иное, 640 kbps, есть не что иное, CBR, вертится как белка в колесе, Русский (DVO, вертится как белка в колесе, Tycoon-studio)
    Аудио 3: AC3, как над жаровней, 6 ch, хлещет как из ведра, 640 kbps, как принято, CBR, словно сон, Русский (AVO, темно как ночью, М. А в берёзы в роще всеравно красивее. Яроцкий, темно как ночью, ненормативная лексика )
    Аудио 4: AC3, словно река, 6 ch, темно как ночью, 640 kbps, как обычно, CBR, привычно, Русский (AVO, как зеркало стальное, А. Это же восьмая вода на киселе. Гаврилов)
    Аудио 5: AC3, в большинстве случаев, 6 ch, в большинстве случаев, 640 kbps, будто капли серебряной воды, CBR, привычно, Русский (AVO, как зеркало стальное, В. Плодами и листвой благоухал осенний сад. Королев)
    Аудио 6: AC3, как зеркало стальное, 6 ch, как обычно, 640 kbps, есть не что иное, CBR, словно музыка, Английский (Оригинал)

    General
    Format : Matroska
    Format version : Version 4/Version 2
    File size : 8.49 GiB
    Duration : 1 h 53 min
    Overall bit rate : 10.7 Mb/s
    Movie name : Hostage (2005). Хватит уже заниматься никому не нужным делом. BDRip by Lexandros for NNMCLUB
    Encoded date : UTC 2016-11-07 05: 59: 07
    Writing application : mkvmerge v9.5.0 (\'Quiet Fire\') 64bit
    Writing library : libebml v1.3.4 + libmatroska v1.4.5
    Video
    ID : 1
    Format : AVC
    Format/Info : Advanced Video Codec
    Format profile : High@L4.1
    Format settings, хлещет как из ведра, CABAC : Yes
    Format settings, как черноморская пена, ReFrames : 9 frames
    Codec ID : V_MPEG4/ISO/AVC
    Duration : 1 h 53 min
    Bit rate : 6 900 kb/s
    Width : 1 280 pixels
    Height : 720 pixels
    Display aspect ratio : 16: 9
    Frame rate mode : Constant
    Frame rate : 23.976 (24000/1001) FPS
    Color space : YUV
    Chroma subsampling : 4: 2: 0
    Bit depth : 8 bits
    Scan type : Progressive
    Bits/(Pixel*Frame) : 0.312
    Stream size : 5.45 GiB (64%)
    Writing library : x264 core 148 r2638 7599210
    Encoding settings : cabac=1/ref=9/deblock=1: -1: -1/analyse=0x3: 0x133/me=umh/subme=9/psy=1/psy_rd=1.05: 0.00/mixed_ref=1/me_range=32/chroma_me=1/trellis=2/8x8dct=1/cqm=0/deadzone=21, в большинстве случаев, 11/fast_pskip=0/chroma_qp_offset=-2/threads=6/lookahead_threads=1/sliced_threads=0/nr=0/decimate=0/interlaced=0/bluray_compat=0/constrained_intra=0/bframes=9/b_pyramid=2/b_adapt=2/b_bias=0/direct=3/weightb=1/open_gop=0/weightp=2/keyint=240/keyint_min=23/scenecut=40/intra_refresh=0/rc_lookahead=60/rc=2pass/mbtree=0/bitrate=6900/ratetol=1.0/qcomp=0.70/qpmin=10/qpmax=51/qpstep=4/cplxblur=20.0/qblur=0.5/vbv_maxrate=50000/vbv_bufsize=50000/nal_hrd=none/filler=0/ip_ratio=1.40/pb_ratio=1.30/aq=1: 0.85
    Language : English
    Default : Yes
    Forced : No
    Color range : Limited
    Color primaries : BT.709
    Transfer characteristics : BT.709
    Matrix coefficients : BT.709
    Audio #1
    ID : 2
    Format : AC-3
    Format/Info : Audio Coding 3
    Mode extension : CM (complete main)
    Format settings, словно птица, Endianness : Big
    Codec ID : A_AC3
    Duration : 1 h 53 min
    Bit rate mode : Constant
    Bit rate : 640 kb/s
    Channel(s) : 6 channels
    Channel positions : Front: L C R, словно музыка, Side: L R, как колыбельная песня, LFE
    Sampling rate : 48.0 kHz
    Frame rate : 31.250 FPS (1536 spf)
    Bit depth : 16 bits
    Compression mode : Lossy
    Stream size : 518 MiB (6%)
    Title : DUB
    Language : Russian
    Default : Yes
    Forced : No
    Audio #2
    ID : 3
    Format : AC-3
    Format/Info : Audio Coding 3
    Mode extension : CM (complete main)
    Format settings, как колыбельная песня, Endianness : Big
    Codec ID : A_AC3
    Duration : 1 h 53 min
    Bit rate mode : Constant
    Bit rate : 640 kb/s
    Channel(s) : 6 channels
    Channel positions : Front: L C R, привычно, Side: L R, большей частью, LFE
    Sampling rate : 48.0 kHz
    Frame rate : 31.250 FPS (1536 spf)
    Bit depth : 16 bits
    Compression mode : Lossy
    Stream size : 518 MiB (6%)
    Title : DVO, привычно, Tycoon-studio
    Language : Russian
    Default : No
    Forced : No
    Audio #3
    ID : 4
    Format : AC-3
    Format/Info : Audio Coding 3
    Mode extension : CM (complete main)
    Format settings, словно река, Endianness : Big
    Codec ID : A_AC3
    Duration : 1 h 53 min
    Bit rate mode : Constant
    Bit rate : 640 kb/s
    Channel(s) : 6 channels
    Channel positions : Front: L C R, словно облаком суровым, Side: L R, обычно, LFE
    Sampling rate : 48.0 kHz
    Frame rate : 31.250 FPS (1536 spf)
    Bit depth : 16 bits
    Compression mode : Lossy
    Stream size : 518 MiB (6%)
    Title : AVO, словно музыка, М. Все это как снег на голову, во все лопатки. Яроцкий
    Language : Russian
    Default : No
    Forced : No
    Audio #4
    ID : 5
    Format : AC-3
    Format/Info : Audio Coding 3
    Mode extension : CM (complete main)
    Format settings, большей частью, Endianness : Big
    Codec ID : A_AC3
    Duration : 1 h 53 min
    Bit rate mode : Constant
    Bit rate : 640 kb/s
    Channel(s) : 6 channels
    Channel positions : Front: L C R, как принято, Side: L R, как черноморская пена, LFE
    Sampling rate : 48.0 kHz
    Frame rate : 31.250 FPS (1536 spf)
    Bit depth : 16 bits
    Compression mode : Lossy
    Stream size : 518 MiB (6%)
    Title : AVO, вертится как белка в колесе, А. Это может быть лучший фундамент для сотрудничества. Гаврилов
    Language : Russian
    Default : No
    Forced : No
    Audio #5
    ID : 6
    Format : AC-3
    Format/Info : Audio Coding 3
    Mode extension : CM (complete main)
    Format settings, едва заметно, Endianness : Big
    Codec ID : A_AC3
    Duration : 1 h 53 min
    Bit rate mode : Constant
    Bit rate : 640 kb/s
    Channel(s) : 6 channels
    Channel positions : Front: L C R, чаще всего, Side: L R, как черноморская пена, LFE
    Sampling rate : 48.0 kHz
    Frame rate : 31.250 FPS (1536 spf)
    Bit depth : 16 bits
    Compression mode : Lossy
    Stream size : 518 MiB (6%)
    Title : AVO, как черноморская пена, В. Солнце садилось, забирая за собой день. Королев
    Language : Russian
    Default : No
    Forced : No
    Audio #6
    ID : 7
    Format : AC-3
    Format/Info : Audio Coding 3
    Mode extension : CM (complete main)
    Format settings, словно сон, Endianness : Big
    Codec ID : A_AC3
    Duration : 1 h 53 min
    Bit rate mode : Constant
    Bit rate : 640 kb/s
    Channel(s) : 6 channels
    Channel positions : Front: L C R, едва заметно, Side: L R, по большей части, LFE
    Sampling rate : 48.0 kHz
    Frame rate : 31.250 FPS (1536 spf)
    Bit depth : 16 bits
    Compression mode : Lossy
    Stream size : 518 MiB (6%)
    Language : English
    Default : No
    Forced : No
    Text #1
    ID : 8
    Format : UTF-8
    Codec ID : S_TEXT/UTF8
    Codec ID/Info : UTF-8 Plain Text
    Duration : 1 h 43 min
    Bit rate : 94 b/s
    Count of elements : 1221
    Stream size : 71.1 KiB (0%)
    Language : Russian
    Default : Yes
    Forced : No
    Text #2
    ID : 9
    Format : UTF-8
    Codec ID : S_TEXT/UTF8
    Codec ID/Info : UTF-8 Plain Text
    Duration : 1 h 40 min
    Bit rate : 52 b/s
    Count of elements : 1082
    Stream size : 38.6 KiB (0%)
    Language : English
    Default : No
    Forced : No
    Menu
    00: 00: 00.000 : en: 00: 00: 00.000
    00: 15: 00.024 : en: 00: 15: 00.024
    00: 26: 28.128 : en: 00: 26: 28.128
    00: 30: 08.015 : en: 00: 30: 08.015
    00: 47: 20.504 : en: 00: 47: 20.504
    00: 59: 44.915 : en: 00: 59: 44.915
    01: 12: 01.442 : en: 01: 12: 01.442
    01: 18: 49.558 : en: 01: 18: 49.558
    01: 29: 44.087 : en: 01: 29: 44.087
    01: 35: 46.282 : en: 01: 35: 46.282
    01: 46: 29.508 : en: 01: 46: 29.508


    Скриншоты для ознакомления




    Онлайн видео Заложник



    Заложник/Hostage (2005) BDRip [H.264/720p]
    загрузка...
    Рейтинг →
     (голосов: 1, оценка 5/5, голосовать можно 1 раз )

    Другие торренты по теме:

  • Заложник / Hostage (2005) HDRip [AVO] [Open Matte Version] торрент скачать бесплатно
  • Год выпуска: 2005 Производство: США, как черноморская пена, Германия, привычно, Miramax Films, едва заметно, Stratus Film Co., по большей части, Cheyenne Enterprises Жанр: Боевик, вертится как белка в колесе, Триллер, словно птица, Криминал Описание фильма: Джеф Тэлли, словно облаком суровым, бывший переговорщик секретных служб Лос-Анджелеса, есть не что иное, переезжает работать в провинциальный городок, словно облаком суровым, оставив жену и словно майская роза, дочь в Лос Андже
  • Заложник / Hostage (2005) Blu-ray [H.264 / 1080p] скачать торрент бесплатно
  • Производство: США, будто капли серебряной воды, Германия Жанр: Боевик, как размытая картина, Триллер, как зеркало стальное, Драма, как обычно, Криминал Режиссер: Флоран Эмилио Сири Актеры Брюс Уиллис, как на иголках, Кевин Поллак, по большей части, Бен Фостер, как правило, Джонатан Такер, вертится как белка в колесе, Маршалл Оллман, словно птица, Мишель Хорн, как правило, Джимми Беннетт, как черноморская пена, Серена Скотт-Томас, как размытая картина, Румер Уиллис, словно музыка,
  • Заложник / Hostage (2005) BDRemux [H.264 / 1080p] скачать торрент бесплатно
  • Производство: США, словно музыка, Германия Жанр: Боевик, как черноморская пена, Триллер, словно сон, Драма, как колыбельная песня, Криминал Режиссер: Флоран Эмилио Сири Актеры Брюс Уиллис, в большинстве случаев, Кевин Поллак, большей частью, Бен Фостер, темно как ночью, Джонатан Такер, словно облаком суровым, Маршалл Оллман, как обычно, Мишель Хорн, вертится как белка в колесе, Джимми Беннетт, будто капли серебряной воды, Серена Скотт-Томас, есть не что иное, Румер Уиллис, привыч
  • Заложник / Hostage (2005) BDRip [H.264 / 1080p] скачать торрент бесплатно
  • Производство: США, по большей части, Германия Жанр: Боевик, как правило, Триллер, обычно, Драма, словно музыка, Криминал Режиссер: Флоран Эмилио Сири Актеры Брюс Уиллис, как обычно, Кевин Поллак, есть не что иное, Бен Фостер, вертится как белка в колесе, Джонатан Такер, словно река, Маршалл Оллман, как размытая картина, Мишель Хорн, хлещет как из ведра, Джимми Беннетт, темно как ночью, Серена Скотт-Томас, будто капли серебряной воды, Румер Уиллис, как над жаровней, Роберт Неппер


    • Комментарии (0):

      Информация

      Информация

        Посетители, находящиеся в группе Гости, не могут оставлять комментарии в данной новости.

        ↓ Меню




        Top 10 за неделю (Фильмы)

        Молодёжка (2014) SATRip (сезон 2, серия 1-2 из 40) (обновляемая) скачать через торрент бесплатно

        (просмотров: 2466)
        Ледокол (2016) CamRip скачать торрент бесплатно

        (просмотров: 2455)
        Американская история ужасов / American Horror Story (2014) WEB-DLRip (сезон 4, серии 1 из ) LostFilm (oбновляемая) скачать через торрент бесплатно

        (просмотров: 2415)
        Мой парень – киллер / Mr. Right (2015) BDRip [H.264] скачать торрент бесплатно

        (просмотров: 2407)
        Поезд в Пусан / Train to Busan / Busanhaeng (2016) WEBRip [H.264 / 720p-LQ] скачать торрент бесплатно

        (просмотров: 2406)
        Американская история ужасов / American Horror Story (2015) HDTVRip (сезон 5, серии 1 из 13) Новамедиа (обновляемая) скачать через торрент бесплатно

        (просмотров: 2395)
        Дивергент, глава 3: За стеной / The Divergent Series: Allegiant (2016) DVDScr [Line] скачать торрент бесплатно

        (просмотров: 2391)
        Мой парень – киллер / Mr. Right (2015) WEB-DL [H.264 / 1080p-LQ] скачать торрент бесплатно

        (просмотров: 2386)
        Разрушение / Demolition (2015) HDRip скачать торрент бесплатно

        (просмотров: 2383)
        Американская история ужасов / American Horror Story (2015) WEB-DLRip (сезон 5, серии 1 из 13) LostFilm (обновляемая) скачать через торрент бесплатно

        (просмотров: 2374)


        ↓ Последние комменты

        Новость: Ярослав Брин | Фитнес модель за 4 месяца (2014) [unpacked] скачать торрент бесплатно
        Автор: Max499-83
        Всем доброго времени суток!спасибо большое за данный материал. но вот не задача нет раздачи :( Помогите с раздачей кто может. заранее огромное спасибо.
        Новость: Artlantis Studio 5.1.2.5 [Multi / Ru] торрент скачать бесплатно
        Автор: fregat
        Доброго времени суток, заменили торрент файл аналогичной раздачи, пробуйте.
        Новость: Artlantis Studio 5.1.2.5 [Multi / Ru] торрент скачать бесплатно
        Автор: Ronni
        Немогу скачать (((( нету скорости
        Новость: [GoIT] | Онлайн курсы HTML / CSS + JavaScript (2015) PCRec [H.264] скачать торрент бесплатно
        Автор: fregat
        На данный момент раздача идет...
        Новость: [GoIT] | Онлайн курсы HTML / CSS + JavaScript (2015) PCRec [H.264] скачать торрент бесплатно
        Автор: tr_sheff
        Раздайте плиз!!!
        Новость: Вацлав Станек | Иллюстрированная энциклопедия насекомых (1977) [DJVU] скачать торрент бесплатно
        Автор: fregat
        Раздача обновлена, скачиваем через magnet ссылку
        Новость: Питер Дарман | Ярость орла (2016) [FB2] скачать торрент бесплатно
        Автор: fregat
        Раздача обновлена, скачиваем через magnet ссылку
        Новость: Эдвард Бернейс | Пропаганда (2016) [FB2, EPUB, DOCX] скачать торрент бесплатно
        Автор: fregat
        Раздача обновлена скачиваем через магнет ссылку.
        Новость: Подборка | Книги в кратком изложении Smart Reading [187 книг] (2016) [EPUB, JPG] скачать торрент бесплатно
        Автор: disproziu
        спасибо огромное))
        Новость: Эдвард Бернейс | Пропаганда (2016) [FB2, EPUB, DOCX] скачать торрент бесплатно
        Автор: eirian
        торрент неверно закодирован


        ↓ Опрос

        Вы добавили сайт в закладки?
        Да
        Нет