.
Авторизация | Регистрация
Хочешь лучшие торренты? Добавь свой email!
Добавить

Торрент скачать бесплатно

» » Заложник / Hostage (2005) BDRip [H.264 / 1080p] торрент скачать бесплатно




    Заложник / Hostage (2005) BDRip [H.264 / 1080p] торрент скачать бесплатно

    Опубликовал: Админ | Дата: 8-11-2016, 04:01 | Просмотров: 47

    Производство: США, Германия
    Жанр: Боевик, Триллер, Драма, Криминал
    Режиссер: Флоран Эмилио Сири

    Актеры
    Брюс Уиллис, Кевин Поллак, Бен Фостер, Джонатан Такер, Маршалл Оллман, Мишель Хорн, Джимми Беннетт, Серена Скотт-Томас, Румер Уиллис, Роберт Неппер

    Описание

    Джеф Тэлли, бывший переговорщик секретных служб Лос-Анджелеса, переезжает работать в провинциальный городок, оставив жену и дочь в Лос Анджелесе. Когда в его округе происходит ограбление, три преступника берут в заложники ничего не подозревающую семью.
    Но у отца семейства есть тайна, которая могла бы поставить под угрозу его семью, а один из преступников уже начал терять самообладание…. Белая ворона, сказал кто то из толпы, к чему не понятно. Джеф Тэлли должен сделать все, что в его силах, чтобы эта ночь не стала последней для невинных людей.

    Возраст: 16+ (зрителям, достигшим 16 лет)
    Рейтинг MPAA: R (лицам до 17 лет обязательно присутствие взрослого)
    Релиз от: lexandros для NNM CLUB
    Продолжительность: 01: 53: 12
    Качество видео: BDRip
    Перевод: Дублированный, Двухголосый профессиональный, Авторский
    Язык субтитров: Русский, Английский
    Вид субтитров: Вшитые, отключаемые
    Видео: AVC/H.264, 1920x1080, ~18 Mb/s
    Аудио 1: AC3, 6 ch, 640 kbps, CBR, Русский (DUB)
    Аудио 2: AC3, 6 ch, 640 kbps, CBR, Русский (DVO, Tycoon-studio)
    Аудио 3: AC3, 6 ch, 640 kbps, CBR, Русский (AVO, М. Яроцкий, ненормативная лексика )
    Аудио 4: AC3, 6 ch, 640 kbps, CBR, Русский (AVO, А. Гаврилов)
    Аудио 5: AC3, 6 ch, 640 kbps, CBR, Русский (AVO, В. Королев)
    Аудио 6: AC3, 6 ch, 640 kbps, CBR, Английский (Оригинал)

    General
    Format : Matroska
    Format version : Version 2
    File size : 17.3 GiB
    Duration : 1 h 53 min
    Overall bit rate : 21.8 Mb/s
    Movie name : Hostage (2005). BDRip by Lexandros for NNMCLUB
    Encoded date : UTC 2016-11-06 13: 40: 38
    Writing application : mkvmerge v8.5.2 (\'Crosses\') 32bit
    Writing library : libebml v1.3.3 + libmatroska v1.4.4
    Video
    ID : 1
    Format : AVC
    Format/Info : Advanced Video Codec
    Format profile : High@L4.1
    Format settings, CABAC : Yes
    Format settings, ReFrames : 4 frames
    Codec ID : V_MPEG4/ISO/AVC
    Duration : 1 h 53 min
    Bit rate : 18.0 Mb/s
    Width : 1 920 pixels
    Height : 1 080 pixels
    Display aspect ratio : 16: 9
    Frame rate mode : Constant
    Frame rate : 23.976 (24000/1001) FPS
    Color space : YUV
    Chroma subsampling : 4: 2: 0
    Bit depth : 8 bits
    Scan type : Progressive
    Bits/(Pixel*Frame) : 0.362
    Stream size : 14.2 GiB (82%)
    Writing library : x264 core 148 r2638 7599210
    Encoding settings : cabac=1/ref=4/deblock=1: -1: -1/analyse=0x3: 0x133/me=umh/subme=9/psy=1/psy_rd=1.05: 0.00/mixed_ref=1/me_range=32/chroma_me=1/trellis=2/8x8dct=1/cqm=0/deadzone=21, 11/fast_pskip=0/chroma_qp_offset=-2/threads=6/lookahead_threads=1/sliced_threads=0/nr=0/decimate=0/interlaced=0/bluray_compat=0/constrained_intra=0/bframes=9/b_pyramid=2/b_adapt=2/b_bias=0/direct=3/weightb=1/open_gop=0/weightp=2/keyint=240/keyint_min=23/scenecut=40/intra_refresh=0/rc_lookahead=60/rc=2pass/mbtree=0/bitrate=18000/ratetol=1.0/qcomp=0.70/qpmin=10/qpmax=51/qpstep=4/cplxblur=20.0/qblur=0.5/vbv_maxrate=50000/vbv_bufsize=50000/nal_hrd=none/filler=0/ip_ratio=1.40/pb_ratio=1.30/aq=1: 0.85
    Default : Yes
    Forced : No
    Color range : Limited
    Color primaries : BT.709
    Transfer characteristics : BT.709
    Matrix coefficients : BT.709
    Audio #1
    ID : 2
    Format : AC-3
    Format/Info : Audio Coding 3
    Mode extension : CM (complete main)
    Format settings, Endianness : Big
    Codec ID : A_AC3
    Duration : 1 h 53 min
    Bit rate mode : Constant
    Bit rate : 640 kb/s
    Channel(s) : 6 channels
    Channel positions : Front: L C R, Side: L R, LFE
    Sampling rate : 48.0 kHz
    Frame rate : 31.250 FPS (1536 spf)
    Bit depth : 16 bits
    Compression mode : Lossy
    Stream size : 518 MiB (3%)
    Title : DUB
    Language : Russian
    Default : Yes
    Forced : No
    Audio #2
    ID : 3
    Format : AC-3
    Format/Info : Audio Coding 3
    Mode extension : CM (complete main)
    Format settings, Endianness : Big
    Codec ID : A_AC3
    Duration : 1 h 53 min
    Bit rate mode : Constant
    Bit rate : 640 kb/s
    Channel(s) : 6 channels
    Channel positions : Front: L C R, Side: L R, LFE
    Sampling rate : 48.0 kHz
    Frame rate : 31.250 FPS (1536 spf)
    Bit depth : 16 bits
    Compression mode : Lossy
    Stream size : 518 MiB (3%)
    Title : DVO, Tycoon-studio
    Language : Russian
    Default : No
    Forced : No
    Audio #3
    ID : 4
    Format : AC-3
    Format/Info : Audio Coding 3
    Mode extension : CM (complete main)
    Format settings, Endianness : Big
    Codec ID : A_AC3
    Duration : 1 h 53 min
    Bit rate mode : Constant
    Bit rate : 640 kb/s
    Channel(s) : 6 channels
    Channel positions : Front: L C R, Side: L R, LFE
    Sampling rate : 48.0 kHz
    Frame rate : 31.250 FPS (1536 spf)
    Bit depth : 16 bits
    Compression mode : Lossy
    Stream size : 518 MiB (3%)
    Title : AVO, М. Яроцкий
    Language : Russian
    Default : No
    Forced : No
    Audio #4
    ID : 5
    Format : AC-3
    Format/Info : Audio Coding 3
    Mode extension : CM (complete main)
    Format settings, Endianness : Big
    Codec ID : A_AC3
    Duration : 1 h 53 min
    Bit rate mode : Constant
    Bit rate : 640 kb/s
    Channel(s) : 6 channels
    Channel positions : Front: L C R, Side: L R, LFE
    Sampling rate : 48.0 kHz
    Frame rate : 31.250 FPS (1536 spf)
    Bit depth : 16 bits
    Compression mode : Lossy
    Stream size : 518 MiB (3%)
    Title : AVO, А. Гаврилов
    Language : Russian
    Default : No
    Forced : No
    Audio #5
    ID : 6
    Format : AC-3
    Format/Info : Audio Coding 3
    Mode extension : CM (complete main)
    Format settings, Endianness : Big
    Codec ID : A_AC3
    Duration : 1 h 53 min
    Bit rate mode : Constant
    Bit rate : 640 kb/s
    Channel(s) : 6 channels
    Channel positions : Front: L C R, Side: L R, LFE
    Sampling rate : 48.0 kHz
    Frame rate : 31.250 FPS (1536 spf)
    Bit depth : 16 bits
    Compression mode : Lossy
    Stream size : 518 MiB (3%)
    Title : AVO, В. Королев
    Language : Russian
    Default : No
    Forced : No
    Audio #6
    ID : 7
    Format : AC-3
    Format/Info : Audio Coding 3
    Mode extension : CM (complete main)
    Format settings, Endianness : Big
    Codec ID : A_AC3
    Duration : 1 h 53 min
    Bit rate mode : Constant
    Bit rate : 640 kb/s
    Channel(s) : 6 channels
    Channel positions : Front: L C R, Side: L R, LFE
    Sampling rate : 48.0 kHz
    Frame rate : 31.250 FPS (1536 spf)
    Bit depth : 16 bits
    Compression mode : Lossy
    Stream size : 518 MiB (3%)
    Language : English
    Default : No
    Forced : No
    Text #1
    ID : 8
    Format : UTF-8
    Codec ID : S_TEXT/UTF8
    Codec ID/Info : UTF-8 Plain Text
    Duration : 1 h 43 min
    Bit rate : 94 b/s
    Count of elements : 1221
    Stream size : 71.1 KiB (0%)
    Language : Russian
    Default : Yes
    Forced : No
    Text #2
    ID : 9
    Format : UTF-8
    Codec ID : S_TEXT/UTF8
    Codec ID/Info : UTF-8 Plain Text
    Duration : 1 h 40 min
    Bit rate : 52 b/s
    Count of elements : 1083
    Stream size : 38.6 KiB (0%)
    Language : English
    Default : No
    Forced : No
    Menu
    00: 00: 00.000 : en: 00: 00: 00.000
    00: 15: 00.024 : en: 00: 15: 00.024
    00: 26: 28.128 : en: 00: 26: 28.128
    00: 30: 08.015 : en: 00: 30: 08.015
    00: 47: 20.504 : en: 00: 47: 20.504
    00: 59: 44.915 : en: 00: 59: 44.915
    01: 12: 01.442 : en: 01: 12: 01.442
    01: 18: 49.558 : en: 01: 18: 49.558
    01: 29: 44.087 : en: 01: 29: 44.087
    01: 35: 46.282 : en: 01: 35: 46.282
    01: 46: 29.508 : en: 01: 46: 29.508


    Скриншоты для ознакомления




    Онлайн видео Заложник



    Заложник/Hostage (2005) BDRip [H.264/1080p]
    загрузка...
    Рейтинг →
     (голосов: 1, оценка 3/5, голосовать можно 1 раз )

    Другие торренты по теме:

  • Заложник / Hostage (2005) HDRip [AVO] [Open Matte Version]
  • Заложник / Hostage (2005) Blu-ray [H.264 / 1080p]
  • Заложник / Hostage (2005) BDRemux [H.264 / 1080p]
  • Заложник / Hostage (2005) BDRip [H.264 / 720p]
  • Американский заложник / American Hostage (2015) WEB-DLRip [FLW]


    • Комментарии (0):

      Информация

      Информация

        Посетители, находящиеся в группе Гости, не могут оставлять комментарии в данной новости.

        ↓ Меню




        ↓ Опрос

        Вы добавили сайт в закладки?
        Да
        Нет


        Top 10 за месяц (Фильмы)