.
Авторизация | Регистрация
Хочешь лучшие торренты? Добавь свой email!
Добавить

Торрент скачать бесплатно

» » Детективное агентство Дирка Джентли / Dirk Gentlys Holistic Detective Agency (2016) WEB-DL [H.264 / 720p-LQ] (сезон 1, серии 1-2 из 8) LostFilm (обновляемая) торрент скачать бесплатно




    Детективное агентство Дирка Джентли / Dirk Gentlys Holistic Detective Agency (2016) WEB-DL [H.264 / 720p-LQ] (сезон 1, серии 1-2 из 8) LostFilm (обновляемая) торрент скачать бесплатно

    Опубликовал: Админ | Дата: 8-11-2016, 04:01 | Просмотров: 33

    Производство: США, Великобритания/IDW Entertainment, Circle of Confusion, Ideate Media
    Жанр: фантастика, комедия
    Режиссер: Пако Кабесас, Дин Паризо, Майкл Патрик Джэнн

    Актеры
    Сэмюэл Барнетт, Элайджа Вуд, Ханна Маркс, Фиона Дуриф, Джейд Эшете, Мфо Коахо, Майкл Эклунд, Дастин Миллиган, Мигель Сандовал, Нил Браун мл. и др.

    Описание

    Очередной унылый день отельного коридорного Тодда Бротцмана начинается с крика разъяренного домовладельца, крушащего его машину за неуплату аренды. Больная редким неврологическим заболеванием сестра просит денег на лечение, а на работе происходит ужасное кровавое убийство богатого постояльца пентхауса. Главным подозреваемым, несмотря на совсем уж фантастические обстоятельства, конечно же, становится неудачник Тодд. Однако настоящее безумие в его жизни начинается, когда он приходит домой и обнаруживает в своей квартире загадочного гостя. Вломившийся через окно беспардонный и весьма эксцентричный детектив Дирк Джентли тут же навязывает озадаченному Бротцману дружбу и роль своего помощника. Тодд не успевает опомниться, как оказывается втянутым в расследование убийства, которое страдает отсутствием логики или вообще каких-либо действий розыскного характера. Холистический сыщик Джентли не тратит времени на такую ерунду, как отпечатки пальцев, поиск улик и допросы подозреваемых. Он убежден, что вселенная сама подскажет ему ответы. Вот только делать это она не спешит, взамен подбрасывая странному дуэту испытания одно другого опаснее. Разгадать безумную тайну, в которой явно замешаны сверхъестественные силы, и не поплатиться жизнью за дружбу с экстравагантным чудаком — задача не из легких. Особенно когда на хвосте у тебя сидит с десяток подозрительных типов, включая психованную холистическую убийцу…

    Дата мировой премьеры: 22 октября 2016
    Продолжительность: ~ 00: 53: 00 серия
    Качество видео: WEB-DLRip
    Перевод: Многоголосый закадровый, профессиональный -LostFilm
    Реклама: присутствуют заставка LostFilm
    Видео: AVC/H.264, 1280x718 (16: 9), ~4 000 kbps
    Аудио Rus: AC3, 48, 0 kHz, 2 ch, 384 kbps - многоголосый закадровый
    Аудио Eng: AC3, 48, 0 kHz, 2 ch, 384 kbps - оригинал
    Код: выделить все
    General
    Unique ID : 216229167935064018942269739005819857206 (0xA2AC39127065BED48610424B492DA936)
    Complete name : Dirk Gently\'s Holistic Detective Agency [S01] [LostFilm]Dirk.Gentlys.Holistic.Detective.Agency.S01E01.720p.WEB.rus.LostFilm.TV.mkv
    Format : Matroska
    Format version : Version 4/Version 2
    File size : 1.79 GiB
    Duration : 53 min 26 s
    Overall bit rate : 4 797 kb/s
    Encoded date : UTC 2016-11-04 07:51:36
    Writing application : mkvmerge v9.5.0 (\'Quiet Fire\') 64bit
    Writing library : libebml v1.3.4 + libmatroska v1.4.5
    Video
    ID : 1
    Format : AVC
    Format/Info : Advanced Video Codec
    Format profile :High@L3.1
    Format settings, CABAC : No
    Format settings, ReFrames : 2 frames
    Codec ID : V_MPEG4/ISO/AVC
    Duration : 53 min 26 s
    Bit rate : 4 000 kb/s
    Width : 1 280 pixels
    Height : 718 pixels
    Display aspect ratio : 16:9
    Frame rate mode : Constant
    Frame rate : 23.976 FPS
    Color space : YUV
    Chroma subsampling : 4:2:0
    Bit depth : 8 bits
    Scan type : Progressive
    Bits/(Pixel*Frame) : 0.182
    Stream size : 1.50 GiB (84%)
    Writing library : x264 core 112 r1834 a51816a
    Encoding settings : cabac=1/ref=4/deblock=1:-3:-2/analyse=0x3:0x113/me=hex/subme=7/psy=1/psy_rd=1.00:0.00/mixed_ref=1/me_range=16/chroma_me=1/trellis=1/8x8dct=1/cqm=0/deadzone=21, 11/fast_pskip=1/chroma_qp_offset=-2/threads=12/sliced_threads=0/nr=0/decimate=1/interlaced=0/constrained_intra=0/bframes=5/b_pyramid=2/b_adapt=1/b_bias=0/direct=1/weightb=1/open_gop=0/weightp=2/keyint=250/keyint_min=25/scenecut=40/intra_refresh=0/rc_lookahead=40/rc=abr/mbtree=1/bitrate=4000/ratetol=1.0/qcomp=0.60/qpmin=0/qpmax=51/qpstep=4/vbv_maxrate=10000/vbv_bufsize=256000/ip_ratio=1.40/aq=1:1.00/nal_hrd=none
    Language : English
    Default : Yes
    Forced : No
    Color range : Limited
    Color primaries : BT.709
    Transfer characteristics : BT.709
    Matrix coefficients : BT.709
    Audio #1
    ID : 2
    Format : AC-3
    Format/Info : Audio Coding 3
    Mode extension : CM (complete main)
    Format settings, Endianness : Big
    Codec ID : A_AC3
    Duration : 53 min 26 s
    Bit rate mode : Constant
    Bit rate : 384 kb/s
    Channel(s) : 2 channels
    Channel positions : Front: L R
    Sampling rate : 48.0 kHz
    Frame rate : 31.250 FPS (1536 spf)
    Bit depth : 16 bits
    Compression mode : Lossy
    Stream size : 147 MiB (8%)
    Language : Russian
    Default : Yes
    Forced : No
    Audio #2
    ID : 3
    Format : AC-3
    Format/Info : Audio Coding 3
    Mode extension : CM (complete main)
    Format settings, Endianness : Big
    Codec ID : A_AC3
    Duration : 53 min 26 s
    Bit rate mode : Constant
    Bit rate : 384 kb/s
    Channel(s) : 2 channels
    Channel positions : Front: L R
    Sampling rate : 48.0 kHz
    Frame rate : 31.250 FPS (1536 spf)
    Bit depth : 16 bits
    Compression mode : Lossy
    Stream size : 147 MiB (8%)
    Language : English
    Default : No
    Forced : No


    Скриншоты для ознакомления




    Онлайн видео Детективное агентство Дирка Джентли



    Детективное агентство Дирка Джентли/Dirk Gentlys Holistic Detective Agency (2016) WEB-DL [H.264/720p-LQ] (сезон 1, серии 1-2 из 8) LostFilm (обновляемая)
    загрузка...
    Рейтинг →
     (голосов: 1, оценка 4/5, голосовать можно 1 раз )

    Другие торренты по теме:

  • Детективное агентство Дирка Джентли / Dirk Gentlys Holistic Detective Agency (2017) WEB-DL [H.264 / 720p-LQ] (сезон 2, серии 1 из 10) NewStudio (обновляемая)
  • Александер Макколл Смит | Женское детективное агентство № 1 [5 книг] (2006-2015) [FB2, EPUB] скачать через торрент бесплатно
  • Детективное агентство Дирка Джентли / Dirk Gentlys Holistic Detective Agency (2016) WEB-DL [H.264 / 720p-LQ] (сезон 1, серия 1 из 8) NewStudio (обновляемая)
  • Детективное агентство Дирка Джентли / Dirk Gentlys Holistic Detective Agency (2016) WEB-DLRip (сезон 1, серия 1 из 8) Кравец (обновляемая)
  • Детективное агентство Дирка Джентли / Dirk Gentlys Holistic Detective Agency (2016) WEB-DLRip (сезон 1, серии 1 из 8) NewStudio (обновляемая)
  • Детективное агентство Дирка Джентли / Dirk Gentlys Holistic Detective Agency (2016) WEB-DLRip (сезон 1, серии 1-7 из 8) LostFilm (обновляемая)


    • Комментарии (0):

      Информация

      Информация

        Посетители, находящиеся в группе Гости, не могут оставлять комментарии в данной новости.

        ↓ Меню




        ↓ Опрос

        Вы добавили сайт в закладки?
        Да
        Нет


        Top 10 за месяц (Фильмы)