.
Авторизация | Регистрация
Хочешь лучшие торренты? Добавь свой email!
Добавить

Торрент скачать бесплатно

» » Радиоволна / Frequency (2016) WEBRip [H.264 / 1080p-LQ] (сезон 1, серии 1-4 из 10) AlexFilm, Lostfilm, Кравец, NewStudio, OmskBird (обновляемая) торрент скачать бесплатно




    Радиоволна / Frequency (2016) WEBRip [H.264 / 1080p-LQ] (сезон 1, серии 1-4 из 10) AlexFilm, Lostfilm, Кравец, NewStudio, OmskBird (обновляемая) торрент скачать бесплатно

    Опубликовал: Админ | Дата: 8-11-2016, 04:01 | Просмотров: 32

    Производство: США
    Жанр: Детектив, Фантастика, Драма
    Режиссер: Брэд Андерсон, Джон Т. Кречмер

    Актеры
    Пейтон Лист, Дэниэл Бонжур, Ленни Джейкобсон, Девин Келли, Мехи Файфер, Райли Смит, Гаретт Баллок, Винсент Дэнгерфилд, Татьяна Форрест и др.

    Описание

    Главная героиня мистического триллера Frequency - женщина-детектив. Трудностей и заморочек ей хватает и по работе. О таком странном сюжете не догадывалась даже Верка Сердючка. Но её жизнь ещё больше осложняется и запутывается, когда она обнаруживает, что может общаться с отцом посредством обычного радио. Вот только он умер ещё в 1996-м году, а сейчас на дворе 2016-й. Они вступают в новые необычные отношения и начинают совместно работать над расследованием нераскрытого убийства. Самое интересное в это истории, что об этом Кравчук ничего не знал. Связь с прошлым не проходит без последствий – эффект бабочки начинает вносить хаос в современность.

    Дата мировой премьеры: 5 октября 2016
    Релиз от: Grandfather61
    Продолжительность: ~ 00: 43: 00
    Качество видео: WEBRip
    Перевод: Многоголосый закадровый, профессиональный |AlexFilm, Lostfilm, Кравец, NewStudio, OmskBird
    Вид субтитров: Вшитые отключаемые
    Язык субтитров: Английский
    Реклама: отсутствует
    Видео: AVC/H.264, 1920x1080 (16: 9), ~15000 kbps
    Аудио # 1: AC3, 6 ch, 640 kbps, CBR - AlexFilm
    Аудио # 2: AC3, 6 ch, 640 kbps, CBR - Lostfilm
    Аудио # 3: AC3, 2 ch, 192 kbps, CBR - Кравец
    Аудио # 4: AC3, 6 ch, 384 kbps, CBR - NewStudio
    Аудио # 5: AC3, 6 ch, 640 kbps, CBR - OmskBird
    Аудио # 6: AC3, 6 ch, 640 kbps, CBR - оригинал

    General
    Unique ID : 254628659595359549098568363491762942043 (0xBF8FB22E752DE137A061DCE8DE3CB05B)
    Complete name : G: FilmsFrequency.S01.1080p.WEBRipFrequency.S01E01.1080p.WEBRip.5xRus.Eng.mkv
    Format : Matroska
    Format version : Version 4/Version 2
    File size : 5.58 GiB
    Duration : 42mn 26s
    Overall bit rate : 18.8 Mbps
    Encoded date : UTC 2016-10-28 14: 17: 46
    Writing application : mkvmerge v9.4.2 (\'So High\') 64bit
    Writing library : libebml v1.3.4 + libmatroska v1.4.5
    Video
    ID : 1
    Format : AVC
    Format/Info : Advanced Video Codec
    Format profile : High@L4.1
    Format settings, CABAC : Yes
    Format settings, ReFrames : 4 frames
    Codec ID : V_MPEG4/ISO/AVC
    Duration : 42mn 25s
    Bit rate : 15.7 Mbps
    Width : 1 920 pixels
    Height : 1 080 pixels
    Display aspect ratio : 16: 9
    Frame rate mode : Constant
    Frame rate : 23.976 (24000/1001) fps
    Color space : YUV
    Chroma subsampling : 4: 2: 0
    Bit depth : 8 bits
    Scan type : Progressive
    Bits/(Pixel*Frame) : 0.316
    Stream size : 4.65 GiB (83%)
    Writing library : x264 core 148 r2638 7599210
    Encoding settings : cabac=1/ref=4/deblock=1: -3: -3/analyse=0x3: 0x133/me=umh/subme=10/psy=1/psy_rd=1.00: 0.00/mixed_ref=1/me_range=48/chroma_me=1/trellis=2/8x8dct=1/cqm=0/deadzone=21, 11/fast_pskip=0/chroma_qp_offset=-2/threads=12/lookahead_threads=2/sliced_threads=0/nr=0/decimate=0/interlaced=0/bluray_compat=0/constrained_intra=0/bframes=8/b_pyramid=2/b_adapt=2/b_bias=0/direct=3/weightb=1/open_gop=0/weightp=2/keyint=250/keyint_min=23/scenecut=40/intra_refresh=0/rc_lookahead=60/rc=crf/mbtree=0/crf=17.0/qcomp=0.60/qpmin=0/qpmax=69/qpstep=4/vbv_maxrate=62500/vbv_bufsize=78125/crf_max=0.0/nal_hrd=none/filler=0/ip_ratio=1.30/pb_ratio=1.20/aq=3: 0.80
    Language : English
    Default : Yes
    Forced : No
    Audio #1
    ID : 2
    Format : AC-3
    Format/Info : Audio Coding 3
    Mode extension : CM (complete main)
    Format settings, Endianness : Big
    Codec ID : A_AC3
    Duration : 42mn 26s
    Bit rate mode : Constant
    Bit rate : 640 Kbps
    Channel(s) : 6 channels
    Channel positions : Front: L C R, Side: L R, LFE
    Sampling rate : 48.0 KHz
    Frame rate : 31.250 fps (1536 spf)
    Compression mode : Lossy
    Stream size : 194 MiB (3%)
    Title : AlexFilm 5.1
    Language : Russian
    Default : Yes
    Forced : No
    Audio #2
    ID : 3
    Format : AC-3
    Format/Info : Audio Coding 3
    Mode extension : CM (complete main)
    Format settings, Endianness : Big
    Codec ID : A_AC3
    Duration : 42mn 26s
    Bit rate mode : Constant
    Bit rate : 640 Kbps
    Channel(s) : 6 channels
    Channel positions : Front: L C R, Side: L R, LFE
    Sampling rate : 48.0 KHz
    Frame rate : 31.250 fps (1536 spf)
    Compression mode : Lossy
    Stream size : 194 MiB (3%)
    Title : LostFilm 5.1
    Language : Russian
    Default : No
    Forced : No
    Audio #3
    ID : 4
    Format : AC-3
    Format/Info : Audio Coding 3
    Mode extension : CM (complete main)
    Format settings, Endianness : Big
    Codec ID : A_AC3
    Duration : 42mn 26s
    Bit rate mode : Constant
    Bit rate : 192 Kbps
    Channel(s) : 2 channels
    Channel positions : Front: L R
    Sampling rate : 48.0 KHz
    Frame rate : 31.250 fps (1536 spf)
    Compression mode : Lossy
    Stream size : 58.3 MiB (1%)
    Title : Kravec 2.0
    Language : Russian
    Default : No
    Forced : No
    Audio #4
    ID : 5
    Format : AC-3
    Format/Info : Audio Coding 3
    Mode extension : CM (complete main)
    Format settings, Endianness : Big
    Codec ID : A_AC3
    Duration : 42mn 26s
    Bit rate mode : Constant
    Bit rate : 384 Kbps
    Channel(s) : 6 channels
    Channel positions : Front: L C R, Side: L R, LFE
    Sampling rate : 48.0 KHz
    Frame rate : 31.250 fps (1536 spf)
    Compression mode : Lossy
    Stream size : 117 MiB (2%)
    Title : NewStudio 5.1
    Language : Russian
    Default : No
    Forced : No
    Audio #5
    ID : 6
    Format : AC-3
    Format/Info : Audio Coding 3
    Mode extension : CM (complete main)
    Format settings, Endianness : Big
    Codec ID : A_AC3
    Duration : 42mn 26s
    Bit rate mode : Constant
    Bit rate : 640 Kbps
    Channel(s) : 6 channels
    Channel positions : Front: L C R, Side: L R, LFE
    Sampling rate : 48.0 KHz
    Frame rate : 31.250 fps (1536 spf)
    Compression mode : Lossy
    Stream size : 194 MiB (3%)
    Title : OmskBird 5.1
    Language : Russian
    Default : No
    Forced : No
    Audio #6
    ID : 7
    Format : E-AC-3
    Format/Info : Audio Coding 3
    Format settings, Endianness : Big
    Codec ID : A_EAC3
    Duration : 42mn 26s
    Bit rate mode : Constant
    Bit rate : 640 Kbps
    Channel(s) : 6 channels
    Channel positions : Front: L C R, Side: L R, LFE
    Sampling rate : 48.0 KHz
    Frame rate : 187.500 fps (256 spf)
    Compression mode : Lossy
    Stream size : 194 MiB (3%)
    Title : eng
    Language : English
    Default : No
    Forced : No
    Text
    ID : 8
    Format : UTF-8
    Codec ID : S_TEXT/UTF8
    Codec ID/Info : UTF-8 Plain Text
    Duration : 41mn 54s
    Bit rate : 79 bps
    Count of elements : 1015
    Stream size : 24.4 KiB (0%)
    Title : SDH
    Language : English
    Default : No
    Forced : No


    Скриншоты для ознакомления




    Онлайн видео Радиоволна



    Радиоволна/Frequency (2016) WEBRip [H.264/1080p-LQ] (сезон 1, серии 1-4 из 10) AlexFilm, Lostfilm, Кравец, NewStudio, OmskBird (обновляемая)
    загрузка...
    Рейтинг →
     (голосов: 1, оценка 5/5, голосовать можно 1 раз )

    Другие торренты по теме:

  • Радиоволна / Frequency (2016) WEB-DLRip (сезон 1, серии 1 из 10) OmskBird (обновляемая)
  • Радиоволна / Frequency (2016) WEB-DL [H.264 / 720p-LQ] (сезон 1, серии 1 из 10) OmskBird (обновляемая)
  • Радиоволна / Frequency (2016) WEB-DL [H.264 / 1080p-LQ] (сезон 1, серии 1-2 из 10) NewStudio (обновляемая)
  • Радиоволна / Frequency (2016) WEB-DLRip (сезон 1, серии 1 из 10) LostFilm (обновляемая)
  • Радиоволна / Frequency (2016) WEB-DL [H.264 / 1080p-LQ] (сезон 1, серии 1 из 10) LostFilm (обновляемая)
  • Радиоволна / Frequency (2016) WEB-DLRip (сезон 1, серии 1-2 из 10) NewStudio (обновляемая)
  • Радиоволна / Frequency (2016) WEB-DL [H.264] (сезон 1, серии 1-5 из 10) LostFilm [MP4|1280x718]
  • Радиоволна / Frequency (2016) WEB-DLRip (сезон 1, серии 1-13 из 13 + эпилог) OmskBird


    • Комментарии (0):

      Информация

      Информация

        Посетители, находящиеся в группе Гости, не могут оставлять комментарии в данной новости.

        ↓ Меню




        ↓ Опрос

        Вы добавили сайт в закладки?
        Да
        Нет


        Top 10 за месяц (Фильмы)