.
Авторизация | Регистрация
Хочешь лучшие торренты? Добавь свой email!
Добавить

Торрент скачать бесплатно

» » Доктор Шанс / Чанс / Chance (2016) WEBRip [H.264 / 720p-LQ] (сезон 1, серии 1-4 из 10) Jaskier (обновляемая) торрент скачать бесплатно




    Доктор Шанс / Чанс / Chance (2016) WEBRip [H.264 / 720p-LQ] (сезон 1, серии 1-4 из 10) Jaskier (обновляемая) торрент скачать бесплатно

    Опубликовал: Админ | Дата: 8-11-2016, 04:01 | Просмотров: 31

    Производство: США/Fox 21, Groundswell Productions
    Жанр: триллер
    Режиссер: Дэниэл Эттиэс, Майкл Леманн, Леонард Абрахамсон

    Актеры
    Хью Лори, Сэл Лопес, Кевин Карскаллен, Джо Метени, Томас В. Стюарт, Кристиан Агилера, Уилльям Барбо, Кэрол Джефферсон, Брюс Блау, Дэна Боден и др.

    Описание

    В центре внимания оказывается персонаж, роль которого сыграл Хью Лори. Элдон Чэнс - нейропсихиатр, который работает на судебную организацию. Этот человек оказывается в эпицентре конфликта, связанного с коррупцией в правящих рядах. Главному герою приходится перейти через черту своих профессиональных обязательств ради просьбы одной безумно привлекательной пациентки. Однако вскоре несчастный Ченс попадает в разработку супруга этой женщины. Тот - полицейский, который считается одним из самых жестких и жестоких в своей профессии.

    Дата мировой премьеры: 19 октября 2016
    Дата премьеры в РФ: 24 октября 2016

    Продолжительность: ~ 00: 50: 00 серия
    Качество видео: WEBRip
    Перевод: Многоголосый закадровый, профессиональный -Jaskier
    Видео: AVC/H.264, 1280x720 (16: 9), ~1 911 kbps
    Аудио Rus: AC3, 48, 0 kHz, 2 ch, 192 kbps - многоголосый закадровый
    Аудио Eng: AAC, 48, 0 kHz, 2 ch, 64 kbps - оригинал
    Код: выделить все
    General
    Unique ID : 232745788722479123119634381389064920412 (0xAF1935593F75D7729D4ABA2578B15D5C)
    Complete name : Chance [S01] [Jaskier]Chance.S01E01.The.Summer.of.Love.720p.HULU.WEBRip.AAC2.0.H.264-Jaskier.mkv
    Format : Matroska
    Format version : Version 4/Version 2
    File size : 781 MiB
    Duration : 50 min 20 s
    Overall bit rate : 2 169 kb/s
    Encoded date : UTC 2016-11-04 09:52:20
    Writing application : mkvmerge v9.5.0 (\'Quiet Fire\') 64bit
    Writing library : libebml v1.3.4 + libmatroska v1.4.5
    Video
    ID : 1
    Format : AVC
    Format/Info : Advanced Video Codec
    Format profile :High@L3.1
    Format settings, CABAC : Yes
    Format settings, ReFrames : 5 frames
    Codec ID : V_MPEG4/ISO/AVC
    Duration : 50 min 20 s
    Bit rate : 1 911 kb/s
    Width : 1 280 pixels
    Height : 720 pixels
    Display aspect ratio : 16:9
    Frame rate mode : Constant
    Frame rate : 23.976 (24000/1001) FPS
    Color space : YUV
    Chroma subsampling : 4:2:0
    Bit depth : 8 bits
    Scan type : Progressive
    Bits/(Pixel*Frame) : 0.087
    Stream size : 688 MiB (88%)
    Language : English
    Default : Yes
    Forced : No
    Audio #1
    ID : 2
    Format : AC-3
    Format/Info : Audio Coding 3
    Mode extension : CM (complete main)
    Format settings, Endianness : Big
    Codec ID : A_AC3
    Duration : 50 min 20 s
    Bit rate mode : Constant
    Bit rate : 192 kb/s
    Channel(s) : 2 channels
    Channel positions : Front: L R
    Sampling rate : 48.0 kHz
    Frame rate : 31.250 FPS (1536 spf)
    Bit depth : 16 bits
    Compression mode : Lossy
    Stream size : 69.1 MiB (9%)
    Language : Russian
    Default : Yes
    Forced : No
    Audio #2
    ID : 3
    Format : AAC
    Format/Info : Advanced Audio Codec
    Format profile : HE-AAC/LC
    Codec ID : A_AAC
    Duration : 50 min 20 s
    Bit rate : 64.0 kb/s
    Channel(s) : 2 channels
    Channel positions : Front: L R
    Sampling rate : 48.0 kHz/24.0 kHz
    Frame rate : 23.438 FPS (1024 spf)
    Compression mode : Lossy
    Stream size : 23.0 MiB (3%)
    Language : English
    Default : No
    Forced : No


    Скриншоты для ознакомления




    Онлайн видео Доктор Шанс



    Доктор Шанс/Чанс/Chance (2016) WEBRip [H.264/720p-LQ] (сезон 1, серии 1-4 из 10) Jaskier (обновляемая)
    загрузка...
    Рейтинг →
     (голосов: 1, оценка 3/5, голосовать можно 1 раз )

    Другие торренты по теме:

  • Доктор Шанс / Чанс / Chance (2016) WEB-DLRip (сезон 1, серии 1-2 из 10) NewStudio (обновляемая)
  • Доктор Шанс / Чанс / Chance (2016) WEBRip [H.264 / 720p-LQ] (сезон 1, серии 1-2 из 10) NewStudio (обновляемая)
  • Кем Нанн | Доктор Шанс (2017) [FB2]
  • Доктор Шанс / Chance (2016) WEB-DL [H.264 / 1080p-LQ] (сезон 1, серии 1-10 из 10) NewStudio, Jaskier, Fox, Profix Media
  • Доктор Шанс / Chance (2017) WEB-DL [H.264 / 1080p-LQ] (сезон 2, серии 1-7 из 10) NewStudio (обновляемая)


    • Комментарии (0):

      Информация

      Информация

        Посетители, находящиеся в группе Гости, не могут оставлять комментарии в данной новости.

        ↓ Меню




        ↓ Опрос

        Вы добавили сайт в закладки?
        Да
        Нет


        Top 10 за месяц (Фильмы)