.
Авторизация | Регистрация
Хочешь лучшие торренты? Добавь свой email!
Добавить

Торрент скачать бесплатно

» » Воскресший Эртугрул / Возрождение: Эртугрул / Dirilis: Ertugrul (2016) WEB-DLRip (сезон 3, серия 1 (62) из ) (обновляемая) торрент скачать бесплатно




    Воскресший Эртугрул / Возрождение: Эртугрул / Dirilis: Ertugrul (2016) WEB-DLRip (сезон 3, серия 1 (62) из ) (обновляемая) торрент скачать бесплатно

    Опубликовал: Админ | Дата: 8-11-2016, 04:01 | Просмотров: 35

    Производство: Турция, Tekden Film, TRT 1
    Жанр: Военный, Исторический, Приключения
    Режиссер: Метин Гюнай, Бурак Джем Архел

    Актеры
    Энгин Алтан Дюзьятан, Каан Ташанер, Мехмет Чевик, Гёкхан Караджик, Эсра Бильгич, Дженгиз Джошкун, Джавит Четин Гюнер, Нуреттин Сёнмез, Осман Сойкут, Толга Сала, Мухаррем Озджан, Джаглар Йигит Огуллари, Еврен Эрлер, Картан Гюрман, Эмре Озан, Атилла Кылыч

    Описание

    Сериал Воскресший Эртугрул унесет зрителей в глубину истории, когда начала формироваться Великая Османская империя и расскажет о жизни Эртугрула, отца Османа I. Эртугрул был лидером клана тюрок-огузов из рода Кайы и прибыл в Анатолию из Мерва (Туркменистана) с 400 всадниками, чтобы помочь сельджукам Рума против византийцев. Эртугрул по праву считается отцом Османской империи. Этот воин благодаря своей храбрости, терпению и упорству начал великие завоевания, которые впоследствии сформировали Османскую империю. За время своего правления ему удалось завоевать всю западную часть Малой Азии, а его поколения правили империей на протяжении шести веков. Сериал расскажет о великом переселении, о завоевании новых земель, об исторических походах и, конечно же, о любви.

    Качество видео: WEB-DLRip
    Перевод: Одноголосый закадровый, любительский
    Озвучка/Автор перевода: turok1990
    Вид субтитров: Отсутствуют
    Видео: Xvid, 720x400 (16: 9), ~1564 kbps
    Аудио: MP3, 2 ch, ~192.00 kbps, CBR

    Формат : AVI
    Формат/Информация : Audio Video Interleave
    Профиль формата : OpenDML
    Размер файла : 1, 64 Гбайт
    Продолжительность : 2 ч. 13 м.
    Общий поток : 1763 Кбит/сек
    Программа кодирования : Lavf56.36.100
    Видео
    Идентификатор : 0
    Формат : xvid
    Идентификатор кодека : xvid
    Продолжительность : 2 ч. 13 м.
    Битрейт : 1558 Кбит/сек
    Ширина : 720 пикселей
    Высота : 400 пикселей
    Соотношение сторон : 16: 9
    Частота кадров : 25, 000 кадров/сек
    Тип развёртки : Прогрессивная
    Бит/(Пиксели*Кадры) : 0.216
    Размер потока : 1, 45 Гбайт (88%)
    Аудио
    Идентификатор : 1
    Формат : MPEG Audio
    Версия формата : Version 1
    Профиль формата : Layer 3
    Режим : Joint stereo
    Расширение режима : MS Stereo
    Идентификатор кодека : 55
    Идентификатор кодека/Подсказка : MP3
    Продолжительность : 2 ч. 13 м.
    Вид битрейта : Постоянный
    Битрейт : 192 Кбит/сек
    Каналы : 2 канала
    Частота : 44, 1 КГц
    Метод сжатия : С потерями
    Размер потока : 183 Мбайт (11%)
    Выравнивание : Соединение по промежуткам
    Продолжительность промежутка : 26 мс. (0, 65 видеокадр)
    Время предзагрузки промежутка : 26 мс.
    Библиотека кодирования : LAME3.99.5


    Скриншоты для ознакомления




    Онлайн видео Воскресший Эртугрул



    Воскресший Эртугрул/Возрождение: Эртугрул/Dirilis: Ertugrul (2016) WEB-DLRip (сезон 3, серия 1 (62) из ) (обновляемая)
    загрузка...
    Рейтинг →
     (голосов: 1, оценка 3/5, голосовать можно 1 раз )

    Другие торренты по теме:

  • Воскресший Эртугрул / Возрождение: Эртугрул / Dirilis: Ertugrul (2015) WEB-DLRip (сезон 2, серии 1-12 (27-38) из ) turok1990 (обновляемая) скачать через торрент бесплатно
  • Воскресший Эртугрул / Возрождение: Эртугрул / Dirilis: Ertugrul (2016) WEB-DLRip (сезон 3, серия 1-24 (62-85) из ) turok1990 (обновляемая)
  • Воскресший Эртугрул / Dirilis: Ertugrul (2017-2018) WEB-DLRip (сезон 4, серия 1 (92) из ) (turok1990)(обновляемая)


    • Комментарии (0):

      Информация

      Информация

        Посетители, находящиеся в группе Гости, не могут оставлять комментарии в данной новости.

        ↓ Меню




        ↓ Опрос

        Вы добавили сайт в закладки?
        Да
        Нет


        Top 10 за месяц (Фильмы)