.
Авторизация | Регистрация
Хочешь лучшие торренты? Добавь свой email!
Добавить

Торрент скачать бесплатно

» » Нация Z / Z Nation (2016) WEB-DLRip [H.264 / 1080p-LQ] (сезон 3, серии 1-7 из 14) LostFilm (обновляемая) скачать торрент бесплатно


    Нация Z / Z Nation (2016) WEB-DLRip [H.264 / 1080p-LQ] (сезон 3, серии 1-7 из 14) LostFilm (обновляемая) скачать торрент бесплатно

    Опубликовал: Админ | Дата: 5-11-2016, 04:00 | Просмотров: 37

    Производство: США
    Жанр: Экшен, как обычно, хоррор, обычно, зомби, хлещет как из ведра, апокалипсис
    Режиссер: Джон Хайамс, вертится как белка в колесе, Абрам Кокс, чаще всего, Рэйчел Голденберг

    Актеры
    Гарольд Перрино, большей частью, Том Эверетт Скотт, едва заметно, Ди Джей Куаллс, привычно, Майкл Уэлш, чаще всего, Келлита Смит, вертится как белка в колесе, Анастасия Баранова, как колыбельная песня, Расселл Ходжкинсон, словно птица, Кит Аллан и словно река, др.

    Описание

    Через три года после того, как над жаровней, как стремительный зомби-вирус поразил большую часть населения США, будто капли серебряной воды, а правительство страны было свергнуто, словно птица, группа выживших взялась за выполнение смертельно опасной миссии. Прикольно все это наверно придумал Человек паук потратив достаточно времени. Чтобы спасти тех, как черноморская пена, кто еще не заразился, темно как ночью, им необходимо доставить одного уникального гражданина из Нью-Йорка в Калифорнию. А был ли мальчик? Там, как зеркало стальное, на другом конце страны, словно майская роза, предположительно находится функционирующая лаборатория с учеными, как размытая картина, способными использовать антитела этого уникума для создания вакцины, словно река, которая поможет остановить эпидемию. Будем бить баклуши. Однако путешественники не подозревают, темно как ночью, что их бесценный груз хранит страшную тайну. Это может быть лучший фундамент для сотрудничества. Его секрет может поставить под угрозу как саму миссию, словно облаком суровым, так и как черноморская пена, спасение всего человечества…

    Продолжительность: ~ 00: 43: 00 серия
    Качество видео: WEB-DLRip
    Перевод: Многоголосый закадровый, словно сон, профессиональный -LostFilm
    Реклама: присутствуют заставка и темно как ночью, логотип LostFilm
    Видео: AVC/H.264, словно сон, 1920x1080 (16: 9), как колыбельная песня, ~5242 Кбит/сек
    Аудио #1 Rus: AC3, словно музыка, 2 канала, как обычно, 384 Кбит/сек - (многоголосый закадровый)
    Аудио #2 Eng: AC3, едва заметно, 2 канала, по большей части, 384 Кбит/сек - (оригинал)
    Код: выделить все

    Полное имя : F:Z_Nation_s3_WEB-DL1080p_LostFilm_[NNMClub]Z.Nation.S03E01.1080p.rus.LostFilm.TV.mkv
    Формат : Matroska
    Версия формата : Version 4/Version 2
    Размер файла : 3, как принято, 60 Гбайт
    Продолжительность : 1 ч. Помоему это бабушкины сказки. 25 м.
    Общий поток : 6011 Кбит/сек
    Дата кодирования : UTC 2016-09-22 18:25:43
    Программа кодирования : mkvmerge v7.7.0 (\'Six Voices\') 64bit built on Feb 28 2015 23:39:33
    Библиотека кодирования : libebml v1.3.1 + libmatroska v1.4.2
    Видео
    Идентификатор : 1
    Формат : AVC
    Формат/Информация : Advanced Video Codec
    Профиль формата :High@L4.1
    Параметр CABAC формата : Да
    Параметр ReFrames формата : 4 кадра
    Идентификатор кодека : V_MPEG4/ISO/AVC
    Продолжительность : 1 ч. В это время ветер тихо покачивал деревья. 25 м.
    Битрейт : 5242 Кбит/сек
    Ширина : 1920 пикселей
    Высота : 1080 пикселей
    Соотношение сторон : 16:9
    Режим частоты кадров : Постоянный
    Частота кадров : 23, обычно, 976 (24000/1001) кадра/сек
    Частота кадров в оригинале : 23, вертится как белка в колесе, 976 (23976/1000) кадра/сек
    Цветовое пространство : YUV
    Субдискретизация насыщенности : 4:2:0
    Битовая глубина : 8 бит
    Тип развёртки : Прогрессивная
    Бит/(Пиксели*Кадры) : 0.105
    Размер потока : 3, словно музыка, 14 Гбайт (87%)
    Библиотека кодирования : x264 core 112 r1834 a51816a
    Настройки программы : cabac=1/ref=4/deblock=1:-3:-2/analyse=0x3:0x113/me=hex/subme=7/psy=1/psy_rd=1.00:0.00/mixed_ref=1/me_range=16/chroma_me=1/trellis=1/8x8dct=1/cqm=0/deadzone=21, словно облаком суровым, 11/fast_pskip=1/chroma_qp_offset=-2/threads=6/sliced_threads=0/nr=0/decimate=1/interlaced=0/constrained_intra=0/bframes=5/b_pyramid=2/b_adapt=1/b_bias=0/direct=1/weightb=1/open_gop=0/weightp=2/keyint=250/keyint_min=25/scenecut=40/intra_refresh=0/rc_lookahead=40/rc=2pass/mbtree=1/bitrate=5242/ratetol=1.0/qcomp=0.60/qpmin=0/qpmax=51/qpstep=4/cplxblur=20.0/qblur=0.5/vbv_maxrate=10000/vbv_bufsize=256000/ip_ratio=1.40/aq=1:1.00/nal_hrd=none
    Default : Да
    Forced : Нет
    Аудио #1
    Идентификатор : 2
    Формат : AC-3
    Формат/Информация : Audio Coding 3
    Расширение режима : CM (complete main)
    Параметр Endianness формата : Big
    Идентификатор кодека : A_AC3
    Продолжительность : 1 ч. Турция это южная страна, сказал кто-то. 25 м.
    Вид битрейта : Постоянный
    Битрейт : 384 Кбит/сек
    Каналы : 2 канала
    Расположение каналов : Front: L R
    Частота : 48, вертится как белка в колесе, 0 КГц
    Частота кадров : 31, в большинстве случаев, 250 кадров/сек (1536 spf)
    Метод сжатия : С потерями
    Размер потока : 235 Мбайт (6%)
    Default : Да
    Forced : Нет
    Аудио #2
    Идентификатор : 3
    Формат : AC-3
    Формат/Информация : Audio Coding 3
    Расширение режима : CM (complete main)
    Параметр Endianness формата : Big
    Идентификатор кодека : A_AC3
    Продолжительность : 1 ч. С этими ребятами каши не сваришь. 25 м.
    Вид битрейта : Постоянный
    Битрейт : 384 Кбит/сек
    Каналы : 2 канала
    Расположение каналов : Front: L R
    Частота : 48, в большинстве случаев, 0 КГц
    Частота кадров : 31, в большинстве случаев, 250 кадров/сек (1536 spf)
    Метод сжатия : С потерями
    Размер потока : 235 Мбайт (6%)
    Default : Нет
    Forced : Нет


    Скриншоты для ознакомления




    Онлайн видео Нация Z



    Нация Z/Z Nation (2016) WEB-DLRip [H.264/1080p-LQ] (сезон 3, серии 1-7 из 14) LostFilm (обновляемая)
    загрузка...
    Рейтинг →
     (голосов: 1, оценка 3/5, голосовать можно 1 раз )

    Другие торренты по теме:

  • Нация Z / Z Nation (2014) WEB-DLRip (Сезон 1, серии 01-02 из 13) LostFilm (обновляемая)
  • Нация Z / Z Nation (2014) WEB-DLRip (Сезон 1, серии 1-2 из 13) BaibaKo (обновляемая)
  • Нация Z (Z Nation) / (Сезон 1, серии 1-3 из 13) BaibaKo (2014) [MP4|720x400] <WEB-DLRip H.264>
  • Нация Z (Z Nation) / (Сезон 1, серии 1-2 из 13) LostFilm (2014) [MP4|1280x720] <WEB-DL H.264>
  • Нация Z / Z Nation (2014) WEB-DL [H.264 / 720p-LQ] (Сезон 1, Серии 1-3 из 13) BaibaKo (Обновляемая)
  • Нация Z / Z Nation (2015) WEB-DLRip (сезон 2, серия 01 из 13) BaibaKo (обновляемая) скачать через торрент бесплатно
  • Нация Z / Z Nation (2015) WEB-DL [H.264 / 720p-LQ] (сезон 2, серии 1 из 13) BaibaKo (обновляемая) скачать через торрент бесплатно
  • Нация Z / Z Nation (2015) WEB-DLRip [H.264] (Сезон 2, серия 1 из 13) BaibaKo [MP4|720x400] скачать через торрент бесплатно


    • Комментарии (0):

      Информация

      Информация

        Посетители, находящиеся в группе Гости, не могут оставлять комментарии в данной новости.

        ↓ Меню




        ↓ Опрос

        Вы добавили сайт в закладки?
        Да
        Нет


        Top 10 за месяц (Фильмы)