.
Авторизация | Регистрация
Хочешь лучшие торренты? Добавь свой email!
Добавить

Торрент скачать бесплатно

» » Джейсон Борн / Jason Bourne (2016) WEB-DL [H.264 / 1080p-LQ] [VO] торрент скачать бесплатно




    Джейсон Борн / Jason Bourne (2016) WEB-DL [H.264 / 1080p-LQ] [VO] торрент скачать бесплатно

    Опубликовал: Админ | Дата: 4-11-2016, 04:01 | Просмотров: 44

    Производство: Великобритания, Китай, США/Captivate Entertainment, Double Negative, Kennedy/Marshall Company, The, Pearl Street Films, Perfect World (Beijing) Pictures Co.
    Жанр: Боевик, Триллер
    Режиссер: Пол Гринграсс

    Актеры
    Мэтт Дэймон, Алисия Викандер, Томми Ли Джонс, Венсан Кассель, Джулия Стайлз, Риз Ахмед, Ато Эссонда, Скотт Шеперд, Билл Кэмп, Винцец Кифер ...

    Описание

    Мир на грани катастрофы, а значит пришло время ему вернуться. Самое интересное в это истории, что об этом Супермен ничего не знал. Неаполь, Мюнхен, Нью-Йорк — его имя знают повсюду. Элитный суперагент, лучший из лучших, даже в Лас-Вегасе игра пойдет по его правилам.
    Он — Джейсон Борн.

    Возраст: 16+ (зрителям, достигшим 16 лет)
    Рейтинг MPAA: PG-13 (детям до 13 лет просмотр нежелателен)
    Бюджет: $120 000 000
    Премьера (мир): 3 июля 2016, ...
    Премьера (РФ): 1 сентября 2016, UPI

    Продолжительность: 02: 03: 11
    Качество видео: WEB-DL 1080p
    Перевод: Одноголосый закадровый, любительский (Solod)
    Язык субтитров: Английский
    Вид субтитров: Вшитые отключаемые
    Видео: AVC, 1916x798 (2.40: 1), 23.976 fps, 4 585 Kbps (0.125 bit/pixel)
    Аудио #1: AC-3, 48.0 KHz, 2 ch, 256 Kbps, CBR (Русский)
    Аудио #2: AC-3, 48.0 KHz, 6 ch, 384 Kbps, CBR (Английский)

    General
    Complete name : D: Jason.Bourne.2016.1080p.WEB-DL.DD5.1.H264.mkv
    Format : Matroska
    Format version : Version 4/Version 2
    File size : 4.50 GiB
    Duration : 2 h 3 min
    Overall bit rate : 5 228 kb/s
    Encoded date : UTC 2016-11-02 22: 13: 37
    Writing application : mkvmerge v9.5.0 (\'Quiet Fire\') 64bit
    Writing library : libebml v1.3.4 + libmatroska v1.4.5
    Video
    ID : 1
    Format : AVC
    Format/Info : Advanced Video Codec
    Format profile : High@L4
    Format settings, CABAC : Yes
    Format settings, ReFrames : 5 frames
    Codec ID : V_MPEG4/ISO/AVC
    Duration : 2 h 3 min
    Bit rate : 4 585 kb/s
    Width : 1 916 pixels
    Height : 798 pixels
    Display aspect ratio : 2.40: 1
    Frame rate mode : Constant
    Frame rate : 23.976 (23976/1000) FPS
    Color space : YUV
    Chroma subsampling : 4: 2: 0
    Bit depth : 8 bits
    Scan type : Progressive
    Bits/(Pixel*Frame) : 0.125
    Stream size : 3.95 GiB (88%)
    Language : English
    Default : Yes
    Forced : No
    Color range : Limited
    Color primaries : BT.709
    Transfer characteristics : BT.709
    Matrix coefficients : BT.709
    Audio #1
    ID : 2
    Format : AC-3
    Format/Info : Audio Coding 3
    Mode extension : CM (complete main)
    Format settings, Endianness : Big
    Codec ID : A_AC3
    Duration : 2 h 3 min
    Bit rate mode : Constant
    Bit rate : 256 kb/s
    Channel(s) : 2 channels
    Channel positions : Front: L R
    Sampling rate : 48.0 kHz
    Frame rate : 31.250 FPS (1536 spf)
    Compression mode : Lossy
    Stream size : 226 MiB (5%)
    Title : AC3 2.0 Solod
    Language : Russian
    Default : Yes
    Forced : No
    Audio #2
    ID : 3
    Format : AC-3
    Format/Info : Audio Coding 3
    Mode extension : CM (complete main)
    Format settings, Endianness : Big
    Codec ID : A_AC3
    Duration : 2 h 3 min
    Bit rate mode : Constant
    Bit rate : 384 kb/s
    Channel(s) : 6 channels
    Channel positions : Front: L C R, Side: L R, LFE
    Sampling rate : 48.0 kHz
    Frame rate : 31.250 FPS (1536 spf)
    Compression mode : Lossy
    Stream size : 338 MiB (7%)
    Language : English
    Default : No
    Forced : No
    Text
    ID : 4
    Format : UTF-8
    Codec ID : S_TEXT/UTF8
    Codec ID/Info : UTF-8 Plain Text
    Duration : 1 h 53 min
    Bit rate : 36 b/s
    Count of elements : 1026
    Stream size : 30.1 KiB (0%)
    Language : English
    Default : No
    Forced : No
    Menu
    00: 00: 00.000 : en: 1
    00: 04: 06.000 : en: 2
    00: 08: 23.000 : en: 3
    00: 13: 34.000 : en: 4
    00: 18: 30.000 : en: 5
    00: 24: 09.000 : en: 6
    00: 29: 20.000 : en: 7
    00: 36: 17.000 : en: 8
    00: 42: 22.000 : en: 9
    00: 48: 24.000 : en: 10
    00: 55: 14.000 : en: 11
    01: 01: 11.000 : en: 12
    01: 08: 29.000 : en: 13
    01: 16: 25.000 : en: 14
    01: 24: 47.000 : en: 15
    01: 29: 08.000 : en: 16
    01: 37: 54.000 : en: 17
    01: 44: 28.000 : en: 18
    01: 48: 05.000 : en: 19
    01: 54: 03.000 : en: 20


    Скриншоты для ознакомления




    Онлайн видео Джейсон Борн



    Джейсон Борн/Jason Bourne (2016) WEB-DL [H.264/1080p-LQ] [VO]
    загрузка...
    Рейтинг →
     (голосов: 1, оценка 4/5, голосовать можно 1 раз )

    Другие торренты по теме:

  • Джейсон Борн / Jason Bourne (2002-2007) BDRip [H.264 / 1080p] [Трилогия] скачать через торрент бесплатно
  • Джейсон Борн / Jason Bourne (2016) WEBRip [H.264 / 1080p] [Трейлер]
  • Джейсон Борн / Jason Bourne (2016) WEBRip [H.264 / 1080p] [Трейлер]
  • Джейсон Борн / Jason Bourne (2016) CamRip
  • Джейсон Борн / Jason Bourne (2016) HDTVRip [Звук с TS]
  • Джейсон Борн / Jason Bourne (2016) HDTVRip [Звук с TS]
  • Джейсон Борн / Jason Bourne (2016) HDTV [H.264 / 1080p-LQ] [Звук с TS]
  • Джейсон Борн / Jason Bourne (2016) WEBRip [H.264 / 1080p-LQ]


    • Комментарии (0):

      Информация

      Информация

        Посетители, находящиеся в группе Гости, не могут оставлять комментарии в данной новости.

        ↓ Меню




        ↓ Опрос

        Вы добавили сайт в закладки?
        Да
        Нет


        Top 10 за месяц (Фильмы)