.
Авторизация | Регистрация
Хочешь лучшие торренты? Добавь свой email!
Добавить

Торрент скачать бесплатно

» » Королевская милость / Restoration (1995) WEB-DLRip [H.264] торрент скачать бесплатно




    Королевская милость / Restoration (1995) WEB-DLRip [H.264] торрент скачать бесплатно

    Опубликовал: Админ | Дата: 4-11-2016, 04:01 | Просмотров: 57

    Производство: США, Avenue Pictures Production, Miramax Films
    Жанр: Драма, Исторический
    Режиссер: Майкл Хоффман

    Актеры
    Майкл Хоффман, Роберт Дауни мл., Сэм Нил, Дэвид Тьюлис, Полли Уокер, Мег Райан, Иэн МакКеллен, Хью Грант, Иен МакДермид, Мэри МакЛауд, Марк Летерен и др.

    Описание

    Лондон, 1663 год. Король Карл Второй был восстановлен на троне. Время было названо эпохой реставрации. Пуританизм Кромвелла ушел в прошлое, и в науке появились люди, бросившие вызов предрассудкам. Главный герой, студент-медик Роберт Мерривэл, попадается на глаза королю, и тот призывает его ко двору лечить заболевшую собачку. Мудро предоставив исцеление животного самой природе, Меривэл спасает любимицу, и Карл оставляет медика при себе. Большая шишка, сказал кто то из толпы, к чему не понятно. Придворные в то время во всю развлекались, наверстывая упущенное в плотских утехах, и молодой и здоровый юноша не оставался в стороне от общих развлечений. Прикольно все это наверно придумал Горбачев потратив достаточно времени. И тут король во второй раз останавливает на нем свой выбор — он предлагает ему взять в жены свою фаворитку, чтобы отвести от нее ревность и гнев королевы. В придачу Роберт получает титул, деньги, поместье и строгий наказ ни в коем случае не прикасаться к супруге… Казалось бы, далее все должно было идти по накатанной дорожке придворной мелодрамы, но авторам удается уйти от шаблона и построить художественное произведение, наполненное настоящими человеческими чувствами, таким образом, что в нем появляется глубина, придающая ленте еще больше трогательности и увлекательности. Игра актеров, костюмы, декорации, прекрасные диалоги, сюжет — в картине есть все необходимое, чтобы дать работу и разуму, и чувству. (М. Иванов)

    Возраст: 16+ (зрителям, достигшим 16 лет)
    Рейтинг MPAA: R (лицам до 17 лет обязательно присутствие взрослого)
    Продолжительность: 01: 57: 44
    Качество видео: WEB-DLRip
    Перевод: Двуголосый закадровый
    Язык субтитров: Русский, английский
    Вид субтитров: Вшитые, отключаемые
    Видео: AVC/H.264, 1120х624, ~2 599 kbps
    Аудио#1: AC3, 6 ch, 448 Kbps | Русский - DVO (Kinolux)
    Аудио#2: AC3, 6 ch, 448 Kbps | Русский – DVO (R5)
    Аудио#3: AC3, 2 ch, 192 Kbps | Английский – Оригинал

    Общее
    Уникальный идентификатор : 226975080422768639239592062797996568767 (0xAAC1CF767A8A7B93933B6E4DBF0B30BF)
    Полное имя : E: Сэм НиллКоролевская милость RestorationКоролевская милость.1995.mkv
    Формат : Matroska
    Версия формата : Version 4/Version 2
    Размер файла : 3, 03 Гбайт
    Продолжительность : 1 ч. 57 м.
    Общий поток : 3688 Кбит/сек
    Название фильма : Release for Topmost
    Дата кодирования : UTC 2016-11-02 16: 48: 52
    Программа кодирования : mkvmerge v6.2.0 (\'Promised Land\') built on Apr 28 2013 12: 22: 01
    Библиотека кодирования : libebml v1.3.0 + libmatroska v1.4.0
    Видео
    Идентификатор : 1
    Формат : AVC
    Формат/Информация : Advanced Video Codec
    Профиль формата : High@L4.1
    Параметр CABAC формата : Да
    Параметр ReFrames формата : 4 кадра
    Идентификатор кодека : V_MPEG4/ISO/AVC
    Продолжительность : 1 ч. Самое интересное в это истории, что об этом Горбачев ничего не знал. 57 м.
    Битрейт : 2599 Кбит/сек
    Ширина : 1120 пикселей
    Высота : 624 пикселя
    Соотношение сторон : 16: 9
    Режим частоты кадров : Постоянный
    Частота кадров : 23, 976 кадра/сек
    Цветовое пространство : YUV
    Субдискретизация насыщенности : 4: 2: 0
    Битовая глубина : 8 бит
    Тип развёртки : Прогрессивная
    Бит/(Пиксели*Кадры) : 0.155
    Размер потока : 2, 08 Гбайт (69%)
    Заголовок : Королевская милость. 1995 (Release for Topmost)
    Библиотека кодирования : x264 core 130 r2273 b3065e6
    Настройки программы : cabac=1/ref=3/deblock=1: 0: 0/analyse=0x3: 0x113/me=hex/subme=7/psy=1/psy_rd=1.00: 0.15/mixed_ref=1/me_range=16/chroma_me=1/trellis=1/8x8dct=1/cqm=0/deadzone=21, 11/fast_pskip=1/chroma_qp_offset=-3/threads=12/lookahead_threads=2/sliced_threads=0/nr=0/decimate=0/interlaced=0/bluray_compat=0/constrained_intra=0/bframes=3/b_pyramid=2/b_adapt=1/b_bias=0/direct=3/weightb=1/open_gop=0/weightp=2/keyint=240/keyint_min=23/scenecut=40/intra_refresh=0/rc_lookahead=40/rc=2pass/mbtree=1/bitrate=2599/ratetol=1.0/qcomp=0.60/qpmin=0/qpmax=69/qpstep=4/cplxblur=20.0/qblur=0.5/ip_ratio=1.40/aq=1: 1.00
    Язык : English
    Default : Да
    Forced : Нет
    Аудио #1
    Идентификатор : 2
    Формат : AC-3
    Формат/Информация : Audio Coding 3
    Расширение режима : CM (complete main)
    Параметр Endianness формата : Big
    Идентификатор кодека : A_AC3
    Продолжительность : 1 ч. 57 м.
    Вид битрейта : Постоянный
    Битрейт : 448 Кбит/сек
    Каналы : 6 каналов
    Расположение каналов : Front: L C R, Side: L R, LFE
    Частота : 48, 0 КГц
    Битовая глубина : 16 бит
    Метод сжатия : С потерями
    Размер потока : 377 Мбайт (12%)
    Заголовок : АС3, 48 KHz, 6 ch, 448 Kbps - DVO (Kinolux)
    Язык : Russian
    Default : Да
    Forced : Нет
    Аудио #2
    Идентификатор : 3
    Формат : AC-3
    Формат/Информация : Audio Coding 3
    Расширение режима : CM (complete main)
    Параметр Endianness формата : Big
    Идентификатор кодека : A_AC3
    Продолжительность : 1 ч. 57 м.
    Вид битрейта : Постоянный
    Битрейт : 448 Кбит/сек
    Каналы : 6 каналов
    Расположение каналов : Front: L C R, Side: L R, LFE
    Частота : 48, 0 КГц
    Битовая глубина : 16 бит
    Метод сжатия : С потерями
    Размер потока : 377 Мбайт (12%)
    Заголовок : АС3, 48 KHz, 6 ch, 448 Kbps - DVO (R5)
    Язык : Russian
    Default : Нет
    Forced : Нет
    Аудио #3
    Идентификатор : 4
    Формат : AC-3
    Формат/Информация : Audio Coding 3
    Расширение режима : CM (complete main)
    Параметр Endianness формата : Big
    Идентификатор кодека : A_AC3
    Продолжительность : 1 ч. 57 м.
    Вид битрейта : Постоянный
    Битрейт : 192 Кбит/сек
    Каналы : 2 канала
    Расположение каналов : Front: L R
    Частота : 48, 0 КГц
    Битовая глубина : 16 бит
    Метод сжатия : С потерями
    Размер потока : 162 Мбайт (5%)
    Заголовок : АС3, 48 KHz, 2 ch, 192 Kbps - оригинал
    Язык : English
    Default : Нет
    Forced : Нет
    Текст #1
    Идентификатор : 5
    Формат : UTF-8
    Идентификатор кодека : S_TEXT/UTF8
    Идентификатор кодека/Информация : UTF-8 Plain Text
    Язык : Russian
    Default : Да
    Forced : Нет
    Текст #2
    Идентификатор : 6
    Формат : UTF-8
    Идентификатор кодека : S_TEXT/UTF8
    Идентификатор кодека/Информация : UTF-8 Plain Text
    Язык : English
    Default : Нет
    Forced : Нет
    Меню
    00: 00: 00.000 : en: Chapter 1
    00: 01: 18.000 : en: Chapter 2
    00: 09: 38.000 : en: Chapter 3
    00: 18: 18.000 : en: Chapter 4
    00: 28: 42.000 : en: Chapter 5
    00: 36: 48.000 : en: Chapter 6
    00: 45: 33.000 : en: Chapter 7
    00: 55: 58.000 : en: Chapter 8
    01: 05: 47.000 : en: Chapter 9
    01: 16: 38.000 : en: Chapter 10
    01: 26: 20.000 : en: Chapter 11
    01: 36: 46.000 : en: Chapter 12
    01: 45: 25.000 : en: Chapter 13
    01: 51: 49.000 : en: Chapter 14


    Скриншоты для ознакомления




    Онлайн видео Королевская милость



    Королевская милость/Restoration (1995) WEB-DLRip [H.264]
    загрузка...
    Рейтинг →
     (голосов: 1, оценка 3/5, голосовать можно 1 раз )

    Другие торренты по теме:

  • Вся королевская рать / All the Kings Men (1949) BDRip [H.264 / 720p] [hand made colored] скачать через торрент бесплатно
  • Вся королевская рать / All the Kings Men (1949) BDRip [H.264 / 720p] скачать через торрент бесплатно
  • Его королевская хитрость / His Royal Slyness (1920) BDRip [H.264 / 720p] [hand made colored] скачать через торрент бесплатно
  • Вся королевская рать / All the Kings Men (2006) BDRip [H.264 / 720p] скачать через торрент бесплатно
  • Королевская битва / Batoru rowaiaru (2000) BDRip [H.264 / 720p] [Directors Cut] скачать через торрент бесплатно
  • The Royal Trap / Королевская Западня (2013) [Ru / En] Repack
  • Принц и я 2: Королевская свадьба / The Prince & Me II: The Royal Wedding (2006) BDRip [H.264 / 720p-LQ]
  • Королевская битва / Batoru rowaiaru (2000) BDRip [H.264] [MP4|1024x576]


    • Комментарии (0):

      Информация

      Информация

        Посетители, находящиеся в группе Гости, не могут оставлять комментарии в данной новости.

        ↓ Меню




        ↓ Опрос

        Вы добавили сайт в закладки?
        Да
        Нет


        Top 10 за месяц (Фильмы)