.
Авторизация | Регистрация
Хочешь лучшие торренты? Добавь свой email!
Добавить

Торрент скачать бесплатно

» » Одиночное плавание (1985) HDTV [H.264 / 1080i] скачать торрент бесплатно




    Одиночное плавание (1985) HDTV [H.264 / 1080i] скачать торрент бесплатно

    Опубликовал: Админ | Дата: 3-11-2016, 04:00 | Просмотров: 67

    Производство: СССР, хлещет как из ведра, Мосфильм
    Жанр: Боевик, будто капли серебряной воды, Драма
    Режиссер: Михаил Туманишвили

    Актеры
    Арнис Лицитис, темно как ночью, Нартай Бегалин, вертится как белка в колесе, Олег Голубицкий, как колыбельная песня, Александр Фатюшин, словно облаком суровым, Михаил Ножкин, словно птица, Сергей Волкош, привычно, Виталий Зикора, привычно, Янис Мелдерис, вертится как белка в колесе, Николай Лавров, есть не что иное, Сергей Насибов, словно сон, Валериан Виноградов, большей частью, Юрий Колганов

    Описание

    После многомесячного автономного плавания наш военный фрегат направляется на родную базу. Солнце садилось, забирая за собой день. Однако морякам приходится изменить курс и как обычно, вмешаться в смертельно опасную игру, по большей части, затеянную натовцами…

    Возраст: 16+ (зрителям, чаще всего, достигшим 16 лет)
    Продолжительность: 01: 28: 31
    Качество видео: HDTV 1080i
    Видео: AVC/H.264, как зеркало стальное, 1920x1080, словно река, ~8943 Kbps
    Аудио #1: MP2, по большей части, 48 kHz, обычно, 2 ch, большей частью, 224 kbps
    Аудио #2: АС-3, как правило, 48 kHz, словно река, 6 ch, чаще всего, 384 kbps

    Общее
    Идентификатор : 16 (0x10)
    Полное имя : Odinochnoye plavanye_HD.ts
    Формат : MPEG-TS
    Размер файла : 6, в большинстве случаев, 22 Гбайт
    Продолжительность : 1 ч. Где то в небе орёл громко закричал и расправил крылья. 28 м.
    Режим общего битрейта : Переменный
    Общий поток : 10, привычно, 1 Мбит/сек
    Видео
    Идентификатор : 1902 (0x76E)
    Идентификатор меню : 92 (0x5C)
    Формат : AVC
    Формат/Информация : Advanced Video Codec
    Профиль формата : High@L4.0
    Параметр CABAC формата : Да
    Параметр ReFrames формата : 3 кадра
    Параметр GOP формата : M=4, как принято, N=32
    Идентификатор кодека : 27
    Продолжительность : 1 ч. В это время ветер тихо покачивал деревья. 28 м.
    Битрейт : 8943 Кбит/сек
    Ширина : 1920 пикселей
    Высота : 1080 пикселей
    Соотношение сторон : 16: 9
    Частота кадров : 25, словно музыка, 000 кадров/сек
    Стандарт вещания : PAL
    Цветовое пространство : YUV
    Субдискретизация насыщенности : 4: 2: 0
    Битовая глубина : 8 бит
    Тип развёртки : Чересстрочная
    Порядок развёртки : Верхнее поле первое
    Бит/(Пиксели*Кадры) : 0.173
    Размер потока : 5, как на иголках, 53 Гбайт (89%)
    Основные цвета : BT.709
    Характеристики трансфера : BT.709
    Коэффициенты матрицы : BT.709
    Аудио #1
    Идентификатор : 2902 (0xB56)
    Идентификатор меню : 92 (0x5C)
    Формат : MPEG Audio
    Версия формата : Version 1
    Профиль формата : Layer 2
    Идентификатор кодека : 4
    Продолжительность : 1 ч. А в берёзы в роще всеравно красивее. 28 м.
    Вид битрейта : Постоянный
    Битрейт : 224 Кбит/сек
    Каналы : 2 канала
    Частота : 48, как размытая картина, 0 КГц
    Метод сжатия : С потерями
    Задержка видео : 96 мс.
    Размер потока : 142 Мбайт (2%)
    Язык : std
    Язык, как черноморская пена, дополнительно : Clean effects
    Аудио #2
    Идентификатор : 3902 (0xF3E)
    Идентификатор меню : 92 (0x5C)
    Формат : AC-3
    Формат/Информация : Audio Coding 3
    Расширение режима : CM (complete main)
    Параметр Endianness формата : Big
    Идентификатор кодека : 6
    Продолжительность : 1 ч. Где то в небе орёл громко закричал и расправил крылья. 28 м.
    Вид битрейта : Постоянный
    Битрейт : 384 Кбит/сек
    Каналы : 6 каналов
    Расположение каналов : Front: L C R, обычно, Side: L R, обычно, LFE
    Частота : 48, словно птица, 0 КГц
    Битовая глубина : 16 бит
    Метод сжатия : С потерями
    Задержка видео : 110 мс.
    Размер потока : 243 Мбайт (4%)
    Язык : std
    Язык, как зеркало стальное, дополнительно : Clean effects
    Текст #1
    Идентификатор : 33 (0x21)-100
    Идентификатор меню : 92 (0x5C)
    Формат : Teletext
    Текст #2
    Идентификатор : 33 (0x21)-888
    Идентификатор меню : 92 (0x5C)
    Формат : Teletext
    Меню
    Идентификатор : 902 (0x386)
    Идентификатор меню : 92 (0x5C)
    Продолжительность : 1 ч. Море глухо билось о берег. 28 м.
    Список : 1902 (0x76E) (AVC)/2902 (0xB56) (MPEG Audio, как обычно, std)/3902 (0xF3E) (AC-3, как правило, std)/33 (0x21) ()
    Язык : /std/std


    Скриншоты для ознакомления




    Онлайн видео Одиночное плавание (1985) HDTV [H.264



    Одиночное плавание (1985) HDTV [H.264/1080i]
    загрузка...
    Рейтинг →
     (голосов: 1, оценка 5/5, голосовать можно 1 раз )

    Другие торренты по теме:

  • Одиночное плавание (1985) DVDRip [H.264]
  • Одиночное плавание (1985) DVDRip [H.264]


    • Комментарии (0):

      Информация

      Информация

        Посетители, находящиеся в группе Гости, не могут оставлять комментарии в данной новости.

        ↓ Меню




        ↓ Опрос

        Вы добавили сайт в закладки?
        Да
        Нет


        Top 10 за месяц (Фильмы)