.
Авторизация | Регистрация
Хочешь лучшие торренты? Добавь свой email!
Добавить

Торрент скачать бесплатно

» » Люди / Humans (2016) HDTVrip [H.264 / 720p-LQ] (сезон 2, серии 1 из 8) OMSKBIRD (обновляемая) торрент скачать бесплатно




    Люди / Humans (2016) HDTVrip [H.264 / 720p-LQ] (сезон 2, серии 1 из 8) OMSKBIRD (обновляемая) торрент скачать бесплатно

    Опубликовал: Админ | Дата: 2-11-2016, 04:01 | Просмотров: 182

    Производство: США, Великобритания/Kudos Film and Television, Channel 4, AMC Studios
    Жанр: фантастика, драма
    Режиссер: Сэм Винсент, Джонатан Брэкли

    Актеры
    Джемма Чан, Кэтрин Паркинсон, Колин Морган, Эмили Беррингтон, Том Гудман-Хилл, Люси Карлесс, Иванно Джеремайя и др.

    Описание

    Действие сериала развернется в параллельном мире, где чрезвычайную популярность приобрели новые гаджеты — высокотехнологичные роботы-слуги, которые внешне пугающе похожи на людей. Одного такого помощника по хозяйству приобретает живущая в пригороде семья. Вскоре они осознают, что совместная с машиной жизнь повлечет за собой жуткие последствия.

    Продолжительность: ~00: 44: 00 серия
    Качество видео: HDTVrip
    Перевод: Многоголосый закадровый, профессиональный | OMSKBIRD
    Реклама: присутствуют аудио вставки рекламы
    Видео: AVC/H.264, 1280x720 (16: 9), ~2189 kbps
    Аудио # 1 Rus: AC-3, 2 ch, 192 kbps, CBR - многоголосый закадровый
    Аудио # 2 Eng: AC-3, 2 ch, 192 kbps, CBR - оригинал

    General
    Unique ID : 188665047135596852914177858508386330378 (0x8DEF90FDDF08D8189FA93968782DE70A)
    Complete name : F: Мои ДокументыВидеоРАЗДАЧИЛюдиHumans S02 HDTVrip 720p (OMSKBIRD)Humans S02E01 HDTVrip 720p (OMSKBIRD).mkv
    Format : Matroska
    Format version : Version 2
    File size : 870 MiB
    Duration : 46mn 18s
    Overall bit rate : 2 625 Kbps
    Encoded date : UTC 2016-11-01 09: 36: 14
    Writing application : mkvmerge v4.0.0 (\'The Stars were mine\') сборка от Jun 6 2010 16: 18: 42
    Writing library : libebml v1.0.0 + libmatroska v1.0.0
    Video
    ID : 1
    Format : AVC
    Format/Info : Advanced Video Codec
    Format profile : High@L4.1
    Format settings, CABAC : Yes
    Format settings, ReFrames : 5 frames
    Codec ID : V_MPEG4/ISO/AVC
    Duration : 46mn 18s
    Bit rate : 2 189 Kbps
    Width : 1 280 pixels
    Height : 720 pixels
    Display aspect ratio : 16: 9
    Frame rate mode : Variable
    Frame rate : 25.000 fps
    Color space : YUV
    Chroma subsampling : 4: 2: 0
    Bit depth : 8 bits
    Scan type : Progressive
    Bits/(Pixel*Frame) : 0.095
    Stream size : 725 MiB (83%)
    Writing library : x264 core 148 r2721 72d53ab
    Encoding settings : cabac=1/ref=5/deblock=1: 0: 0/analyse=0x3: 0x113/me=hex/subme=8/psy=1/psy_rd=1.00: 0.00/mixed_ref=1/me_range=16/chroma_me=1/trellis=2/8x8dct=1/cqm=0/deadzone=21, 11/fast_pskip=1/chroma_qp_offset=-2/threads=24/lookahead_threads=4/sliced_threads=0/nr=0/decimate=1/interlaced=0/bluray_compat=0/constrained_intra=0/bframes=3/b_pyramid=2/b_adapt=1/b_bias=0/direct=3/weightb=1/open_gop=0/weightp=2/keyint=250/keyint_min=25/scenecut=40/intra_refresh=0/rc_lookahead=50/rc=crf/mbtree=1/crf=18.0/qcomp=0.60/qpmin=0/qpmax=69/qpstep=4/ip_ratio=1.40/aq=1: 1.00
    Language : English
    Default : No
    Forced : No
    Matrix coefficients : BT.709-5, BT.1361, IEC 61966-2-4 709, SMPTE RP177
    Audio #1
    ID : 2
    Format : AC-3
    Format/Info : Audio Coding 3
    Mode extension : CM (complete main)
    Format settings, Endianness : Big
    Codec ID : A_AC3
    Duration : 46mn 18s
    Bit rate mode : Constant
    Bit rate : 192 Kbps
    Channel(s) : 2 channels
    Channel positions : Front: L R
    Sampling rate : 48.0 KHz
    Bit depth : 16 bits
    Compression mode : Lossy
    Stream size : 63.6 MiB (7%)
    Language : Russian
    Default : Yes
    Forced : No
    Audio #2
    ID : 3
    Format : AC-3
    Format/Info : Audio Coding 3
    Mode extension : CM (complete main)
    Format settings, Endianness : Big
    Codec ID : A_AC3
    Duration : 46mn 18s
    Bit rate mode : Constant
    Bit rate : 192 Kbps
    Channel(s) : 2 channels
    Channel positions : Front: L R
    Sampling rate : 48.0 KHz
    Bit depth : 16 bits
    Compression mode : Lossy
    Stream size : 63.6 MiB (7%)
    Language : English
    Default : No
    Forced : No


    Скриншоты для ознакомления




    Онлайн видео Люди



    Люди/Humans (2016) HDTVrip [H.264/720p-LQ] (сезон 2, серии 1 из 8) OMSKBIRD (обновляемая)
    загрузка...
    Рейтинг →
     (голосов: 1, оценка 4/5, голосовать можно 1 раз )

    Другие торренты по теме:

  • Люди / Humans (2015) HDTVRip (сезон 1, серии 1 из 8) BaibaKo (обновляемая) скачать через торрент бесплатно
  • Люди / Humans (2015) HDTV [H.264 / 720p-LQ] (сезон 1, серия 1 из 8) (BaibaKo) (обновляемая) скачать через торрент бесплатно
  • Люди / Humans (2015) HDTVRip (сезон 1, серии 1 из 8) NewStudio (обновляемая) скачать через торрент бесплатно
  • Люди / Humans (2015) HDTV [H.264 / 720p-LQ] (сезон 1, серии 1 из 8) NewStudio (обновляемая) скачать через торрент бесплатно
  • Люди / Humans (2015) HDTVRip (сезон 1, серии 1 из 8) LostFilm (обновляемая) скачать через торрент бесплатно
  • Люди / Humans (2016) HDTVrip (сезон 2, серии 1 из 8) OMSKBIRD (обновляемая)
  • Люди / Humans (2016) HDTV [H.264 / 1080p-LQ] (сезон 2, серии 1 из 8) LostFilm (обновляемая)
  • Люди / Humans (2016) HDTVRip (сезон 2, серии 1 из 8) LostFilm (обновляемая)


    • Комментарии (0):

      Информация

      Информация

        Посетители, находящиеся в группе Гости, не могут оставлять комментарии в данной новости.

        ↓ Меню




        ↓ Опрос

        Вы добавили сайт в закладки?
        Да
        Нет


        Top 10 за месяц (Фильмы)