.
Авторизация | Регистрация
Хочешь лучшие торренты? Добавь свой email!
Добавить

Торрент скачать бесплатно

» » Коля - Перекати Поле (2005) DVDRip [H.264] торрент скачать бесплатно




    Коля - Перекати Поле (2005) DVDRip [H.264] торрент скачать бесплатно

    Опубликовал: Админ | Дата: 30-10-2016, 04:00 | Просмотров: 24

    Производство: Россия
    Жанр: Комедия, Драма
    Режиссер: Николай Досталь

    Актеры
    Сергей Баталов, Алла Клюка-Шаффер, Ирина Розанова, Андрей Жигалов, Владимир Толоконников, Анна Овсянникова, Владимир Капустин, Лев Борисов

    Описание

    Эта комедийная мелодрама является продолжением известного во всем мире фильма режиссера Николая Досталя Облако-рай!
    В новом фильме рассказана история про тех же героев. Время действия - наши дни, место действия - небольшой провинциальный городок, затерявшийся на просторах России. Когда-то случайно брошенная при свидетелях фраза заставила Колю оставить свой дом и любимую девушку. Перебороздив моря и океаны, Коля возвращается в родной город, не подозревая о произошедших в его отсутствие переменах. Для земляков такой сюрприз - полная неожиданность, выплеснувшаяся бурей эмоций и переросшая в панику, ведь приезд Коли - самая настоящая угроза их размеренной жизни. И снова, как десять лет назад, Коля выдумывает историю, которая переворачивает всё с ног на голову, увлекая зрителей в новый, еще более крутой водоворот приключений...

    Возраст: 12+ (зрителям, достигшим 12 лет)
    Дата выхода DVD релиза: 8 июля 2010, CP-Digital
    Релиз от: denver7979 для nnmclub.to
    Исходник DVD5
    Продолжительность: 01: 34: 26
    Качество видео: DVDRip
    Видео: AVC, 720x432 (1.667), 25.000 fps, 1 585 Kbps (0.204 bit/pixel)
    Аудио: AC-3, 48.0 KHz, 6 ch, 448 Kbps, CBR

    Формат : Matroska
    Версия формата : Version 2
    Размер файла : 1, 37 Гбайт
    Продолжительность : 1 ч. 36 м.
    Общий поток : 2035 Кбит/сек
    Дата кодирования : UTC 2016-10-28 20: 32: 24
    Программа кодирования : mkvmerge v6.1.0 (\'Old Devil\') built on Mar 4 2013 09: 10: 42
    Библиотека кодирования : libebml v1.3.0 + libmatroska v1.4.0
    Видео
    Идентификатор : 1
    Формат : AVC
    Формат/Информация : Advanced Video Codec
    Профиль формата : High@L4.1
    Параметр CABAC формата : Да
    Параметр ReFrames формата : 4 кадра
    Идентификатор кодека : V_MPEG4/ISO/AVC
    Продолжительность : 1 ч. 36 м.
    Битрейт : 1585 Кбит/сек
    Ширина : 720 пикселей
    Высота : 432 пикселя
    Соотношение сторон : 5: 3
    Режим частоты кадров : Постоянный
    Частота кадров : 25, 000 кадров/сек
    Цветовое пространство : YUV
    Субдискретизация насыщенности : 4: 2: 0
    Битовая глубина : 8 бит
    Тип развёртки : Прогрессивная
    Бит/(Пиксели*Кадры) : 0.204
    Размер потока : 1, 04 Гбайт (76%)
    Библиотека кодирования : x264 core 130 r2273 b3065e6
    Настройки программы : cabac=1/ref=3/deblock=1: -1: -1/analyse=0x3: 0x113/me=umh/subme=10/psy=1/psy_rd=1.00: 0.15/mixed_ref=1/me_range=32/chroma_me=1/trellis=2/8x8dct=1/cqm=0/deadzone=21, 11/fast_pskip=0/chroma_qp_offset=-3/threads=3/lookahead_threads=1/sliced_threads=0/nr=0/decimate=1/interlaced=0/bluray_compat=0/constrained_intra=0/bframes=3/b_pyramid=2/b_adapt=2/b_bias=0/direct=3/weightb=1/open_gop=0/weightp=2/keyint=250/keyint_min=25/scenecut=40/intra_refresh=0/rc_lookahead=40/rc=2pass/mbtree=1/bitrate=1585/ratetol=1.0/qcomp=0.60/qpmin=0/qpmax=69/qpstep=4/cplxblur=20.0/qblur=0.5/ip_ratio=1.40/aq=1: 1.00
    Default : Да
    Forced : Нет
    Аудио
    Идентификатор : 2
    Формат : AC-3
    Формат/Информация : Audio Coding 3
    Расширение режима : CM (complete main)
    Параметр Endianness формата : Big
    Идентификатор кодека : A_AC3
    Продолжительность : 1 ч. 36 м.
    Вид битрейта : Постоянный
    Битрейт : 448 Кбит/сек
    Каналы : 6 каналов
    Расположение каналов : Front: L C R, Side: L R, LFE
    Частота : 48, 0 КГц
    Метод сжатия : С потерями
    Размер потока : 310 Мбайт (22%)
    Default : Да
    Forced : Нет


    Скриншоты для ознакомления




    Онлайн видео Коля



    Коля - Перекати Поле (2005) DVDRip [H.264]
    загрузка...
    Рейтинг →
     (голосов: 1, оценка 5/5, голосовать можно 1 раз )

    Другие торренты по теме:



      Комментарии (0):

      Информация

      Информация

        Посетители, находящиеся в группе Гости, не могут оставлять комментарии в данной новости.

        ↓ Меню




        ↓ Опрос

        Вы добавили сайт в закладки?
        Да
        Нет


        Top 10 за месяц (Фильмы)