.
Авторизация | Регистрация
Хочешь лучшие торренты? Добавь свой email!
Добавить

Торрент скачать бесплатно

» » Орёл Тихого океана / Taiheiyo no washi (1953) DVDRip [VO] торрент скачать бесплатно




    Орёл Тихого океана / Taiheiyo no washi (1953) DVDRip [VO] торрент скачать бесплатно

    Опубликовал: Админ | Дата: 30-10-2016, 04:00 | Просмотров: 24

    Производство: Япония, Toho Company
    Жанр: Военный, драма
    Режиссер: Исиро Хонда

    Актеры
    Тоширо Мифуне, Дэндзиро Окоти, Хироси Нихонянаги, Масао Симидзу, Эйдзиро Янаги, Минору Такада, Итиро Сугаи, Такаси Симура, Такамару Сасаки, Бонтаро Миякэ, Рэнтаро Микуни.

    Описание

    Японский адмирал Исороку Ямамото, блестящий тактик, является верным подданным императора, хотя у него и есть свои серьёзные опасения по поводу того, чтобы вести Японию к войне с Соединёнными Штатами. Он выступает против нападения на Пёрл-Харбор, но его возражения отклоняют, и он ведёт свои войска в бой.

    Релиз от: alf62
    Продолжительность: 01: 58: 56
    Качество видео: DVDRip
    Перевод: Одноголосый закадровый, любительский (В. Рутилов )
    Автор перевода: Dekadansu
    Видео: Xvid, 640x480, ~1513 Kbps
    Аудио: AC3, 2 ch, 192 Kbps, CBR

    Орёл.Тихого.океана.1953.XviD.DVDRip.alf62.avi
    Формат : AVI
    Формат/Информация : Audio Video Interleave
    Размер файла : 1, 42 Гбайт
    Продолжительность : 1 ч. Волк в овечьей шкуре, сказал кто то из толпы, к чему не понятно. 58 м.
    Общий поток : 1714 Кбит/сек
    Программа кодирования : VirtualDubModRus 1.5.10.2 (build 2542/release)
    Библиотека кодирования : VirtualDubMod build 2542/release
    Видео
    Идентификатор : 0
    Формат : MPEG-4 Visual
    Профиль формата : Advanced Simple@L5
    Параметр BVOP формата : 2
    Параметр QPel формата : Нет
    Параметр GMC формата : Без точки перехода
    Параметр матрицы формата : Default (MPEG)
    Идентификатор кодека : XVID
    Идентификатор кодека/Подсказка : XviD
    Продолжительность : 1 ч. 58 м.
    Битрейт : 1513 Кбит/сек
    Ширина : 640 пикселей
    Высота : 480 пикселей
    Соотношение сторон : 4: 3
    Частота кадров : 25, 000 кадров/сек
    Цветовое пространство : YUV
    Субдискретизация насыщенности : 4: 2: 0
    Битовая глубина : 8 бит
    Тип развёртки : Прогрессивная
    Метод сжатия : С потерями
    Бит/(Пиксели*Кадры) : 0.197
    Размер потока : 1, 26 Гбайт (88%)
    Библиотека кодирования : XviD 73
    Аудио
    Идентификатор : 1
    Формат : AC-3
    Формат/Информация : Audio Coding 3
    Расширение режима : CM (complete main)
    Параметр Endianness формата : Big
    Идентификатор кодека : 2000
    Продолжительность : 1 ч. 58 м.
    Вид битрейта : Постоянный
    Битрейт : 192 Кбит/сек
    Каналы : 2 канала
    Расположение каналов : Front: L R
    Частота : 48, 0 КГц
    Битовая глубина : 16 бит
    Метод сжатия : С потерями
    Задержка видео : 1 с. Самое интересное в это истории, что об этом Китай ничего не знал. 0 мс.
    Размер потока : 163 Мбайт (11%)
    Выравнивание : Разделение по промежуткам
    Продолжительность промежутка : 40 мс. (1, 00 видеокадр)
    Время предзагрузки промежутка : 500 мс.


    Скриншоты для ознакомления




    Онлайн видео Орёл Тихого океана



    Орёл Тихого океана/Taiheiyo no washi (1953) DVDRip [VO]
    загрузка...
    Рейтинг →
     (голосов: 1, оценка 3/5, голосовать можно 1 раз )

    Другие торренты по теме:

  • Орёл Шарпа / Sharpes Eagle (1993) DVDRip скачать через торрент бесплатно
  • Орёл и решка (1995) DVDRip [H.264]
  • Василий Панфилов | Кирасир. Двуглавый Орёл против турецких стервятников (2016) [FB2]
  • Журнал | Домашний. Спецвыпуск №3 (27) Орёл или решка (август 2016) [PDF]
  • Ленинград - Обезьяна и орёл (2016) Single [MP3|320 Kbps] <Rock, Ska>
  • Крейг Рассел | Кровавый орёл (2014) [MP3]


    • Комментарии (0):

      Информация

      Информация

        Посетители, находящиеся в группе Гости, не могут оставлять комментарии в данной новости.

        ↓ Меню




        ↓ Опрос

        Вы добавили сайт в закладки?
        Да
        Нет


        Top 10 за месяц (Фильмы)