.
Авторизация | Регистрация
Хочешь лучшие торренты? Добавь свой email!
Добавить

Торрент скачать бесплатно

» » Заложник / Hostage (2005) BDRemux [H.264 / 1080p] торрент скачать бесплатно




    Заложник / Hostage (2005) BDRemux [H.264 / 1080p] торрент скачать бесплатно

    Опубликовал: Админ | Дата: 29-10-2016, 04:00 | Просмотров: 18

    Производство: США, Германия
    Жанр: Боевик, Триллер, Драма, Криминал
    Режиссер: Флоран Эмилио Сири

    Актеры
    Брюс Уиллис, Кевин Поллак, Бен Фостер, Джонатан Такер, Маршалл Оллман, Мишель Хорн, Джимми Беннетт, Серена Скотт-Томас, Румер Уиллис, Роберт Неппер

    Описание

    Джеф Тэлли, бывший переговорщик секретных служб Лос-Анджелеса, переезжает работать в провинциальный городок, оставив жену и дочь в Лос Анджелесе. Когда в его округе происходит ограбление, три преступника берут в заложники ничего не подозревающую семью.
    Но у отца семейства есть тайна, которая могла бы поставить под угрозу его семью, а один из преступников уже начал терять самообладание…. Джеф Тэлли должен сделать все, что в его силах, чтобы эта ночь не стала последней для невинных людей.

    Возраст: 16+ (зрителям, достигшим 16 лет)
    Рейтинг MPAA: R (лицам до 17 лет обязательно присутствие взрослого)
    Релиз от: lexandros для NNM CLUB
    Продолжительность: 01: 53: 12
    Качество видео: BDRemux
    Перевод: Дублированный, Двухголосый профессиональный, Авторский
    Язык субтитров: Русский, Английский
    Вид субтитров: Вшитые, отключаемые
    Видео: AVC/H.264, 1920x1080, ~26 Mbps
    Аудио 1: DTS, 6 ch, 768 kbps, VBR, Русский (DUB)
    Аудио 2: DTS-HD MA, 6 ch, 1893 kbps, VBR, Русский (DVO, Tycoon-studio)
    Аудио 3: DTS-HD MA, 6 ch, 1907 kbps, VBR, Русский (AVO, М. Яроцкий, ненормативная лексика )
    Аудио 4: AC3, 2 ch, 192 kbps, CBR, Украинский (DVO)
    Аудио 5: DTS-HD MA, 6 ch, 1882 kbps, VBR, Английский (Оригинал)

    General
    Format : Matroska
    Format version : Version 4/Version 2
    File size : 25.9 GiB
    Duration : 1 h 53 min
    Overall bit rate mode : Variable
    Overall bit rate : 32.7 Mb/s
    Movie name : Hostage (2005) BDRemux 1080p by lexandros
    Encoded date : UTC 2016-10-28 03: 20: 07
    Writing application : mkvmerge v9.5.0 (\'Quiet Fire\') 64bit
    Writing library : libebml v1.3.4 + libmatroska v1.4.5
    Video
    ID : 1
    Format : AVC
    Format/Info : Advanced Video Codec
    Format profile : High@L4.1
    Format settings, CABAC : Yes
    Format settings, ReFrames : 4 frames
    Codec ID : V_MPEG4/ISO/AVC
    Duration : 1 h 53 min
    Bit rate mode : Variable
    Bit rate : 26.1 Mb/s
    Maximum bit rate : 30.0 Mb/s
    Width : 1 920 pixels
    Height : 1 080 pixels
    Display aspect ratio : 16: 9
    Frame rate mode : Constant
    Frame rate : 23.976 (24000/1001) FPS
    Standard : NTSC
    Color space : YUV
    Chroma subsampling : 4: 2: 0
    Bit depth : 8 bits
    Scan type : Progressive
    Bits/(Pixel*Frame) : 0.525
    Stream size : 20.6 GiB (80%)
    Language : English
    Default : Yes
    Forced : No
    Color range : Limited
    Color primaries : BT.709
    Transfer characteristics : BT.709
    Matrix coefficients : BT.709
    Audio #1
    ID : 2
    Format : DTS
    Format/Info : Digital Theater Systems
    Mode : 16
    Format settings, Endianness : Big
    Codec ID : A_DTS
    Duration : 1 h 53 min
    Bit rate mode : Constant
    Bit rate : 755 kb/s
    Channel(s) : 6 channels
    Channel positions : Front: L C R, Side: L R, LFE
    Sampling rate : 48.0 kHz
    Frame rate : 93.750 FPS (512 spf)
    Bit depth : 24 bits
    Compression mode : Lossy
    Stream size : 611 MiB (2%)
    Title : DUB
    Language : Russian
    Default : Yes
    Forced : No
    Audio #2
    ID : 3
    Format : DTS
    Format/Info : Digital Theater Systems
    Format profile : MA/Core
    Mode : 16
    Format settings, Endianness : Big
    Codec ID : A_DTS
    Duration : 1 h 53 min
    Bit rate mode : Variable/Constant
    Bit rate : 1 920 kb/s/1 509 kb/s
    Channel(s) : 6 channels
    Channel positions : Front: L C R, Side: L R, LFE
    Sampling rate : 48.0 kHz
    Frame rate : 93.750 FPS (512 spf)
    Bit depth : 16 bits
    Compression mode : Lossless/Lossy
    Stream size : 1.50 GiB (6%)
    Title : DVO, Tycoon-studio
    Language : Russian
    Default : No
    Forced : No
    Audio #3
    ID : 4
    Format : DTS
    Format/Info : Digital Theater Systems
    Format profile : MA/Core
    Mode : 16
    Format settings, Endianness : Big
    Codec ID : A_DTS
    Duration : 1 h 53 min
    Bit rate mode : Variable/Constant
    Bit rate : 1 920 kb/s/1 509 kb/s
    Channel(s) : 6 channels
    Channel positions : Front: L C R, Side: L R, LFE
    Sampling rate : 48.0 kHz
    Frame rate : 93.750 FPS (512 spf)
    Bit depth : 16 bits
    Compression mode : Lossless/Lossy
    Stream size : 1.51 GiB (6%)
    Title : AVO, М. Яроцкий
    Language : Russian
    Default : No
    Forced : No
    Audio #4
    ID : 5
    Format : AC-3
    Format/Info : Audio Coding 3
    Mode extension : CM (complete main)
    Format settings, Endianness : Big
    Codec ID : A_AC3
    Duration : 1 h 53 min
    Bit rate mode : Constant
    Bit rate : 192 kb/s
    Channel(s) : 2 channels
    Channel positions : Front: L R
    Sampling rate : 48.0 kHz
    Frame rate : 31.250 FPS (1536 spf)
    Compression mode : Lossy
    Stream size : 155 MiB (1%)
    Title : DVO
    Language : Ukrainian
    Default : No
    Forced : No
    Audio #5
    ID : 6
    Format : DTS
    Format/Info : Digital Theater Systems
    Format profile : MA/Core
    Mode : 16
    Format settings, Endianness : Big
    Codec ID : A_DTS
    Duration : 1 h 53 min
    Bit rate mode : Variable/Constant
    Bit rate : 1 920 kb/s/1 509 kb/s
    Channel(s) : 6 channels
    Channel positions : Front: L C R, Side: L R, LFE
    Sampling rate : 48.0 kHz
    Frame rate : 93.750 FPS (512 spf)
    Bit depth : 16 bits
    Compression mode : Lossless/Lossy
    Stream size : 1.49 GiB (6%)
    Language : English
    Default : No
    Forced : No
    Text #1
    ID : 7
    Format : UTF-8
    Codec ID : S_TEXT/UTF8
    Codec ID/Info : UTF-8 Plain Text
    Duration : 1 h 43 min
    Bit rate : 94 b/s
    Count of elements : 1221
    Stream size : 71.1 KiB (0%)
    Language : Russian
    Default : Yes
    Forced : No
    Text #2
    ID : 8
    Format : UTF-8
    Codec ID : S_TEXT/UTF8
    Codec ID/Info : UTF-8 Plain Text
    Duration : 1 h 40 min
    Bit rate : 52 b/s
    Count of elements : 1083
    Stream size : 38.6 KiB (0%)
    Language : Russian
    Default : No
    Forced : No
    Menu
    00: 00: 00.000 : en: Chapter 1
    00: 14: 59.899 : en: Chapter 2
    00: 26: 38.430 : en: Chapter 3
    00: 38: 25.886 : en: Chapter 4
    00: 49: 32.844 : en: Chapter 5
    01: 04: 56.642 : en: Chapter 6
    01: 13: 39.164 : en: Chapter 7
    01: 24: 46.081 : en: Chapter 8
    01: 35: 24.719 : en: Chapter 9
    01: 44: 59.293 : en: Chapter 10


    Скриншоты для ознакомления




    Онлайн видео Заложник



    Заложник/Hostage (2005) BDRemux [H.264/1080p]
    загрузка...
    Рейтинг →
     (голосов: 1, оценка 4/5, голосовать можно 1 раз )

    Другие торренты по теме:

  • Заложник / Hostage (2005) HDRip [AVO] [Open Matte Version]
  • Заложник / Hostage (2005) Blu-ray [H.264 / 1080p]
  • Заложник / Hostage (2005) BDRip [H.264 / 1080p]
  • Заложник / Hostage (2005) BDRip [H.264 / 720p]
  • Американский заложник / American Hostage (2015) WEB-DLRip [FLW]


    • Комментарии (0):

      Информация

      Информация

        Посетители, находящиеся в группе Гости, не могут оставлять комментарии в данной новости.

        ↓ Меню




        ↓ Опрос

        Вы добавили сайт в закладки?
        Да
        Нет


        Top 10 за месяц (Фильмы)