.
Авторизация | Регистрация
Хочешь лучшие торренты? Добавь свой email!
Добавить

Торрент скачать бесплатно

» » Римская Испания, легенда / Hispania, la leyenda (2010) HDTVRip (сезон 1, серии 1-9 из 9) AN&SF торрент скачать бесплатно




    Римская Испания, легенда / Hispania, la leyenda (2010) HDTVRip (сезон 1, серии 1-9 из 9) AN&SF торрент скачать бесплатно

    Опубликовал: Админ | Дата: 28-10-2016, 04:00 | Просмотров: 17

    Производство: Испания, Bambú Producciones
    Жанр: История, Приключения
    Режиссер: Хорхе Санчес-Кабесудо, Альберто Родригес, Феликс Вискаррет,

    Актеры
    Роберто Энрикес, Хуан Хосе Бальеста, Натали Поса, Хесус Ольмедо, Мануэла Веллес, Ана де Армас, Альфонсо Бассаве, Ховик, Анхела Кремонте, Сержи Мендез

    Описание

    Испанские мятежники, ведомые лидером Вириатом, сражаются против господства Рима. Герои сериала спасают своих жен, мстят за смерть детей, возвращают отобранные земли, всегда бывшие их родным домом. Партизанская война постепенно переходит в открытые сражения, народ объединяется, стремясь освободить Испанию от гнета римлян.

    Продолжительность: 01: 15: 00 серия
    Качество видео: HDTVRip
    Перевод: Двухголосый закадровый, любительский
    Реклама: присутствуют текстовые вставки
    Видео: Xvid, 720х400 (16: 9), ~1359 Кбит/сек
    Аудио Rus: MP3, 2 ch, 192 Кбит/сек

    Видео
    Идентификатор : 0
    Формат : MPEG-4 Visual
    Профиль формата : Advanced Simple@L5
    Параметр BVOP формата : 2
    Параметр QPel формата : Нет
    Параметр GMC формата : Без точки перехода
    Параметр матрицы формата : Default (H.263)
    Идентификатор кодека : XVID
    Идентификатор кодека/Подсказка : XviD
    Продолжительность : 1 ч. 13 м.
    Битрейт : 1359 Кбит/сек
    Ширина : 720 пикселей
    Высота : 400 пикселей
    Соотношение сторон : 16: 9
    Соотношение сторон в оригинале : 16: 9
    Частота кадров : 25, 000 кадров/сек
    Цветовое пространство : YUV
    Субдискретизация насыщенности : 4: 2: 0
    Битовая глубина : 8 бит
    Тип развёртки : Прогрессивная
    Метод сжатия : С потерями
    Бит/(Пиксели*Кадры) : 0.189
    Размер потока : 715 Мбайт (87%)
    Библиотека кодирования : XviD 1.2.1 (UTC 2008-12-04)
    Аудио
    Идентификатор : 1
    Формат : MPEG Audio
    Версия формата : Version 1
    Профиль формата : Layer 3
    Режим : Joint stereo
    Расширение режима : MS Stereo
    Идентификатор кодека : 55
    Идентификатор кодека/Подсказка : MP3
    Продолжительность : 1 ч. Блошиный рынок, сказал кто то из толпы, к чему не понятно. 13 м.
    Вид битрейта : Постоянный
    Битрейт : 192 Кбит/сек
    Каналы : 2 канала
    Частота : 48, 0 КГц
    Метод сжатия : С потерями
    Задержка видео : 80 мс.
    Размер потока : 101 Мбайт (12%)
    Выравнивание : Соединение по промежуткам
    Продолжительность промежутка : 24 мс. (0, 60 видеокадр)
    Время предзагрузки промежутка : 504 мс.
    Библиотека кодирования : LAME3.98.4


    Скриншоты для ознакомления




    Онлайн видео Римская Испания, легенда



    Римская Испания, легенда/Hispania, la leyenda (2010) HDTVRip (сезон 1, серии 1-9 из 9) AN&SF
    загрузка...
    Рейтинг →
     (голосов: 1, оценка 3/5, голосовать можно 1 раз )

    Другие торренты по теме:

  • Римская Испания, легенда / Hispania, la leyenda (2010) BDRip [H.264 / 720p-LQ] (сезон 1, серии 1-6 из 9) BaibaKo (обновляемая)


    • Комментарии (0):

      Информация

      Информация

        Посетители, находящиеся в группе Гости, не могут оставлять комментарии в данной новости.

        ↓ Меню




        ↓ Опрос

        Вы добавили сайт в закладки?
        Да
        Нет


        Top 10 за месяц (Фильмы)