.
Авторизация | Регистрация
Хочешь лучшие торренты? Добавь свой email!
Добавить

Торрент скачать бесплатно

» » Крик / Scream (2016) WEB-DLRip (сезон 2, серии 13 Halloween Special / Специальный Хэллоуинский эпизод) OMSKBIRD торрент скачать бесплатно




    Крик / Scream (2016) WEB-DLRip (сезон 2, серии 13 Halloween Special / Специальный Хэллоуинский эпизод) OMSKBIRD торрент скачать бесплатно

    Опубликовал: Админ | Дата: 27-10-2016, 04:00 | Просмотров: 14

    Производство: США/DiGa Vision, Dimension Films, Dimension Television
    Жанр: ужасы, драма
    Режиссер: Ли Джаньяк, Джулиус Рамсей, Джеми Трэвис

    Актеры
    Уилла Фицджералд, Бекс Тейлор-Клаус, Карлсон Янг, Джон Карна, Коннор Вейл, Бобби Кампо, Амадеус Серафини, Том Мэден, Трэйси Миддендорф, Майк Вон и др.

    Описание

    То, что начиналось как обычное видео на YouTube, вскоре оборачивается проблемами для подростков Лейквуда и служит катализатором для убийства, которое открывает окно в тяжелое прошлое города.

    Продолжительность: 01: 21: 55
    Качество видео: WEB-DL
    Перевод: Многоголосый закадровый, профессиональный | OMSKBIRD
    Реклама: присутствуют аудио вставки рекламы
    Видео: Xvid, 720x400 (16: 9), ~1984 kbps
    Аудио # 1 Rus: AC-3, 2 ch, 192 kbps kbps, CBR - многоголосый закадровый
    Аудио # 2 Eng: AC-3, 2 ch, 192 kbps kbps, CBR - оригинал

    General
    Complete name : F: Мои ДокументыВидеоРАЗДАЧИScream s02e13 Halloween Special WEB-DLRip (OMSKBIRD).avi
    Format : AVI
    Format/Info : Audio Video Interleave
    File size : 1.36 GiB
    Duration : 1h 21mn
    Overall bit rate : 2 383 Kbps
    Writing application : VirtualDubMod 1.5.10.3 |www.virtualdub-fr.org|| (build 2550/release)
    Writing library : VirtualDubMod build 2550/release
    Video
    ID : 0
    Format : MPEG-4 Visual
    Format profile : Advanced Simple@L5
    Format settings, BVOP : 2
    Format settings, QPel : No
    Format settings, GMC : No warppoints
    Format settings, Matrix : Default (MPEG)
    Codec ID : XVID
    Codec ID/Hint : XviD
    Duration : 1h 21mn
    Bit rate : 1 984 Kbps
    Width : 720 pixels
    Height : 400 pixels
    Display aspect ratio : 16: 9
    Frame rate : 23.976 fps
    Color space : YUV
    Chroma subsampling : 4: 2: 0
    Bit depth : 8 bits
    Scan type : Progressive
    Compression mode : Lossy
    Bits/(Pixel*Frame) : 0.287
    Stream size : 1.14 GiB (83%)
    Writing library : XviD 1.2.1 (UTC 2008-12-04)
    Audio #1
    ID : 1
    Format : AC-3
    Format/Info : Audio Coding 3
    Mode extension : CM (complete main)
    Format settings, Endianness : Big
    Codec ID : 2000
    Duration : 1h 21mn
    Bit rate mode : Constant
    Bit rate : 192 Kbps
    Channel(s) : 2 channels
    Channel positions : Front: L R
    Sampling rate : 48.0 KHz
    Bit depth : 16 bits
    Compression mode : Lossy
    Stream size : 113 MiB (8%)
    Alignment : Split accross interleaves
    Interleave, duration : 42 ms (1.00 video frame)
    Interleave, preload duration : 500 ms
    Audio #2
    ID : 2
    Format : AC-3
    Format/Info : Audio Coding 3
    Mode extension : CM (complete main)
    Format settings, Endianness : Big
    Codec ID : 2000
    Duration : 1h 21mn
    Bit rate mode : Constant
    Bit rate : 192 Kbps
    Channel(s) : 2 channels
    Channel positions : Front: L R
    Sampling rate : 48.0 KHz
    Bit depth : 16 bits
    Compression mode : Lossy
    Stream size : 113 MiB (8%)
    Alignment : Split accross interleaves
    Interleave, duration : 42 ms (1.00 video frame)
    Interleave, preload duration : 500 ms


    Скриншоты для ознакомления




    Онлайн видео Крик



    Крик/Scream (2016) WEB-DLRip (сезон 2, серии 13 Halloween Special/Специальный Хэллоуинский эпизод) OMSKBIRD
    загрузка...
    Рейтинг →
     (голосов: 1, оценка 3/5, голосовать можно 1 раз )

    Другие торренты по теме:

  • Крик / Scream (2015) WEB-DLRip (сезон 1, серии 1 из 10) LostFilm (обновляемая) скачать через торрент бесплатно
  • Крик / Scream (2015) WEB-DL [H.264 / 720p-LQ] (сезон 1, серия 1 из 10) (LostFilm) (обновляемая) скачать через торрент бесплатно
  • Крик / Scream (2015) WEB-DLRip [H.264] (Сезон 1, серия 1 из 10) LostFilm [MP4|960х544] (обновляемая) скачать через торрент бесплатно
  • Крик / Scream (1996-2011) BDRip [H.264 / 1080p] [Антология] скачать через торрент бесплатно
  • Крик / Scream (2015) WEB-DLRip [H.264 / 1080p-LQ] (сезон 1, серии 1-9 из 10) LostFilm (обновляемая) скачать через торрент бесплатно
  • Крик / Scream (2015) WEB-DLRip [H.264] (сезон 1, серии 1-9 из 10) LostFilm (обновляемая) скачать через торрент бесплатно
  • Крик / Scream (1996) BDRip [H.264 / 720р-LQ] скачать через торрент бесплатно
  • Крик / Scream (2016) HDTV [H.264 / 720p-LQ] (сезон 2, серии 1 из 8) ColdFilm (обновляемая)


    • Комментарии (0):

      Информация

      Информация

        Посетители, находящиеся в группе Гости, не могут оставлять комментарии в данной новости.

        ↓ Меню




        ↓ Опрос

        Вы добавили сайт в закладки?
        Да
        Нет


        Top 10 за месяц (Фильмы)