.
Авторизация | Регистрация
Хочешь лучшие торренты? Добавь свой email!
Добавить

Торрент скачать бесплатно

» » Детективное агентство Дирка Джентли / Dirk Gentlys Holistic Detective Agency (2016) WEB-DLRip (сезон 1, серия 1 из 8) Кравец (обновляемая) торрент скачать бесплатно




    Детективное агентство Дирка Джентли / Dirk Gentlys Holistic Detective Agency (2016) WEB-DLRip (сезон 1, серия 1 из 8) Кравец (обновляемая) торрент скачать бесплатно

    Опубликовал: Админ | Дата: 27-10-2016, 04:00 | Просмотров: 133

    Производство: США, Великобритания, IDW Entertainment, Circle of Confusion, Ideate Media
    Жанр: фантастика, комедия
    Режиссер: Пако Кабесас, Дин Паризо, Майкл Патрик Джэнн

    Актеры
    Элайджа Вуд, Кристиан Бако, Сэмюэл Барнетт, Нил Браун мл., Аарон Дуглас, Фиона Дуриф, Майкл Эклунд, Джейд Эшете, Мфо Коахо, Ханна Маркс, Дастин Миллиган и др.

    Описание

    Сериал по мотивам серии романов Дугласа Адамса Детективное агентство Дирка Джентли, повествующих о детективе, расследующем преступления, связанные со сверхъестественными явлениями.

    Дата мировой премьеры: 22.10.2016
    Продолжительность: ~00: 53: 00 серия
    Качество видео: WEB-DLRip
    Перевод: Многоголосый закадровый, профессиональный - Кравец
    Реклама: присутствуют всплывающие рекламные баннеры
    Видео: Xvid, 720x400 (16: 9), ~1243 Kbps
    Аудио: MP3, 2 ch, 224 Kbps, CBR

    Общее
    Полное имя : ...СериалыДетективное агентство Дирка Джентли S01 KravecДетективное агентство Дирка Джентли S01E01 Kravec.avi
    Формат : AVI
    Формат/Информация : Audio Video Interleave
    Размер файла : 564 Мбайт
    Продолжительность : 53 м.
    Общий поток : 1480 Кбит/сек
    Название фильма : Dirk.Gently.S01E01
    Режиссёр :
    Программа кодирования : Lavf55.19.104
    Видео
    Идентификатор : 0
    Формат : xvid
    Идентификатор кодека : xvid
    Продолжительность : 53 м.
    Битрейт : 1243 Кбит/сек
    Ширина : 720 пикселей
    Высота : 400 пикселей
    Соотношение сторон : 16: 9
    Частота кадров : 23, 976 кадра/сек
    Тип развёртки : Прогрессивная
    Бит/(Пиксели*Кадры) : 0.180
    Размер потока : 474 Мбайт (84%)
    Заголовок : Video Track
    Аудио
    Идентификатор : 1
    Формат : MPEG Audio
    Версия формата : Version 1
    Профиль формата : Layer 3
    Режим : Joint stereo
    Идентификатор кодека : 55
    Идентификатор кодека/Подсказка : MP3
    Продолжительность : 53 м.
    Вид битрейта : Постоянный
    Битрейт : 224 Кбит/сек
    Каналы : 2 канала
    Частота : 48, 0 КГц
    Метод сжатия : С потерями
    Размер потока : 85, 3 Мбайт (15%)
    Выравнивание : Соединение по промежуткам
    Продолжительность промежутка : 24 мс. (0, 58 видеокадр)
    Заголовок : Audio Track


    Скриншоты для ознакомления




    Онлайн видео Детективное агентство Дирка Джентли



    Детективное агентство Дирка Джентли/Dirk Gentlys Holistic Detective Agency (2016) WEB-DLRip (сезон 1, серия 1 из 8) Кравец (обновляемая)
    загрузка...
    Рейтинг →
     (голосов: 1, оценка 3/5, голосовать можно 1 раз )

    Другие торренты по теме:

  • Александер Макколл Смит | Женское детективное агентство № 1 [5 книг] (2006-2015) [FB2, EPUB] скачать через торрент бесплатно
  • Детективное агентство Дирка Джентли / Dirk Gentlys Holistic Detective Agency (2016) WEB-DL [H.264 / 720p-LQ] (сезон 1, серия 1 из 8) NewStudio (обновляемая)
  • Детективное агентство Дирка Джентли / Dirk Gentlys Holistic Detective Agency (2016) WEB-DLRip (сезон 1, серии 1 из 8) NewStudio (обновляемая)
  • Детективное агентство Дирка Джентли / Dirk Gentlys Holistic Detective Agency (2016) WEB-DL [H.264 / 720p-LQ] (сезон 1, серии 1-2 из 8) LostFilm (обновляемая)
  • Детективное агентство Дирка Джентли / Dirk Gentlys Holistic Detective Agency (2016) WEB-DLRip (сезон 1, серии 1-7 из 8) LostFilm (обновляемая)
  • Детективное агентство Дирка Джентли / Dirk Gentlys Holistic Detective Agency (2017) WEB-DL [H.264 / 720p-LQ] (сезон 2, серии 1 из 10) NewStudio (обновляемая)
  • Детективное агентство Дирка Джентли / Dirk Gentlys Holistic Detective Agency (2017) WEB-DL [H.264 / 1080p-LQ] (сезон 2, серии 1-4 из 10) NewStudio (обновляемая)


    • Комментарии (0):

      Информация

      Информация

        Посетители, находящиеся в группе Гости, не могут оставлять комментарии в данной новости.

        ↓ Меню




        ↓ Опрос

        Вы добавили сайт в закладки?
        Да
        Нет


        Top 10 за месяц (Фильмы)