.
Авторизация | Регистрация
Хочешь лучшие торренты? Добавь свой email!
Добавить

Торрент скачать бесплатно

» » Палач (2014) WEBRip (серии 1-10 из 10) торрент скачать бесплатно




    Палач (2014) WEBRip (серии 1-10 из 10) торрент скачать бесплатно

    Опубликовал: Админ | Дата: 27-10-2016, 04:00 | Просмотров: 15

    Производство: Россия/ООО Студия Русский проект
    Жанр: Детектив, Криминал, Триллер
    Режиссер: Вячеслав Никифоров

    Актеры
    Андрей Смоляков, Виктория Толстоганова, Юлия Пересильд, Марина Александрова, Алексей Бардуков, Юрий Тарасов, Владимир Юматов, Вадим Андреев, Даниэла Стоянович, Александр Дробитько и др...

    Описание

    События разворачиваются на окраине Москвы в 1965 году. В центре - история разоблачения женщины-палача, которая во время войны по указке немцев расстреливала пленных, партизан, мирных жителей. Это фактически отдельная гражданская война изуверки со своим народом. В войну ей едва исполнилось 20 лет, а на ее счету было уже полторы тысячи убийств. Своих жертв она расстреливала из пулемета, прячась за игрушечной маской зайчика. Потом выпивала бутылку самогона и затем появлялась уже на следующее утро без маски и жила обычной жизнью, такой же, как и все остальные...Поэтому после войны вычислить убийцу было очень непросто. Дело это поручили главному следователю. Его подозрения падают то на одну, то на другую женщину...

    Возраст: 16+ (зрителям, достигшим 16 лет)
    Продолжительность: ~ 00: 50: 00 серия
    Качество видео: WEBRip
    Видео: Xvid, 720x400 (16: 9), ~1000 Kbps
    Аудио: AC3, 2 ch, 192 Kbps, CBR

    Общее
    Полное имя : D: Мои фильмыPalach_1-10iz10_2014_XviD_WEBRipPalach_01_WEBRip.avi
    Формат : AVI
    Формат/Информация : Audio Video Interleave
    Размер файла : 446 Мбайт
    Продолжительность : 51 м. 49 с.
    Общий поток : 1202 Кбит/сек
    Программа кодирования : VirtualDubMod 1.5.10.2 (build 2540/release)
    Библиотека кодирования : VirtualDub build 35491/release
    Видео
    Идентификатор : 0
    Формат : MPEG-4 Visual
    Профиль формата : Advanced Simple@L5
    Параметр BVOP формата : 2
    Параметр QPel формата : Нет
    Параметр GMC формата : Без точки перехода
    Параметр матрицы формата : Default (H.263)
    Идентификатор кодека : XVID
    Идентификатор кодека/Подсказка : XviD
    Продолжительность : 51 м. 49 с.
    Битрейт : 1000 Кбит/сек
    Ширина : 720 пикселей
    Высота : 400 пикселей
    Соотношение сторон : 16: 9
    Частота кадров : 25, 000 кадров/сек
    Цветовое пространство : YUV
    Субдискретизация насыщенности : 4: 2: 0
    Битовая глубина : 8 бит
    Тип развёртки : Прогрессивная
    Метод сжатия : С потерями
    Бит/(Пиксели*Кадры) : 0.139
    Размер потока : 371 Мбайт (83%)
    Библиотека кодирования : XviD 67
    Аудио
    Идентификатор : 1
    Формат : AC-3
    Формат/Информация : Audio Coding 3
    Расширение режима : CM (complete main)
    Параметр Endianness формата : Big
    Идентификатор кодека : 2000
    Продолжительность : 51 м. 49 с.
    Вид битрейта : Постоянный
    Битрейт : 192 Кбит/сек
    Каналы : 2 канала
    Расположение каналов : Front: L R
    Частота : 48, 0 КГц
    Частота кадров : 31, 250 кадров/сек (1536 spf)
    Метод сжатия : С потерями
    Размер потока : 71, 2 Мбайт (16%)
    Выравнивание : Соединение по промежуткам
    Продолжительность промежутка : 40 мс. (1, 00 видеокадр)
    Время предзагрузки промежутка : 512 мс.


    Скриншоты для ознакомления




    Онлайн видео Палач (2014) WEBRip (серии 1



    Палач (2014) WEBRip (серии 1-10 из 10)
    загрузка...
    Рейтинг →
     (голосов: 1, оценка 4/5, голосовать можно 1 раз )

    Другие торренты по теме:

  • Палач / Палач-бастард / The Bastard Executioner (2015) WEB-DLRip (сезон 1, серии 1 из 10) NewStudio (обновляемая) скачать через торрент бесплатно
  • Палач / Палач-бастард / The Bastard Executioner (2015) WEB-DL [H.264 / 720p-LQ] (сезон 1, серии 1 из 10) BaibaKo (обновляемая) скачать через торрент бесплатно
  • Палач / Палач-бастард / The Bastard Executioner (2015) WEB-DL [H.264 / 1080p-LQ] (сезон 1, серии 1 из 10) BaibaKo (обновляемая) скачать через торрент бесплатно
  • Палач / Палач-бастард / The Bastard Executioner (2015) WEB-DLRip (сезон 1, серии 1 из 10) BaibaKo (обновляемая) скачать через торрент бесплатно
  • Палач / Палач-бастард / The Bastard Executioner (2015) WEB-DL [H.264 / 1080p-LQ] (сезон 1, серии 1-8 из 10) NewStudio (обновляемая) скачать через торрент бесплатно
  • Палач / Палач-бастард / The Bastard Executioner (2015) WEB-DLRip (сезон 1, серии 1-9 из 10) BaibaKo (обновляемая)
  • Палач / Палач-бастард / The Bastard Executioner (2015) WEB-DL [H.264 / 1080p-LQ] (сезон 1, серии 1-10 из 10) BaibaKo
  • Палач / The Headsman (2005) DVD5 скачать через торрент бесплатно


    • Комментарии (0):

      Информация

      Информация

        Посетители, находящиеся в группе Гости, не могут оставлять комментарии в данной новости.

        ↓ Меню




        ↓ Опрос

        Вы добавили сайт в закладки?
        Да
        Нет


        Top 10 за месяц (Фильмы)